[ create a new paste ] login | about

Link: http://codepad.org/5OskFZVp    [ raw code | fork ]

Plain Text, pasted on Jul 9:
Exact Audio Copy V1.0 beta 3 from 29. August 2011

EAC extraction logfile from 2. April 2016, 14:54

 Ben Liebrand / Grand 12-inches 14 (CD02)

Used drive  : MATSHITADVD-RAM UJ8FBS   Adapter: 0  ID: 0

Read mode               : Secure
Utilize accurate stream : Yes
Defeat audio cache      : Yes
Make use of C2 pointers : No

Read offset correction                      : 6
Overread into Lead-In and Lead-Out          : No
Fill up missing offset samples with silence : Yes
Delete leading and trailing silent blocks   : No
Null samples used in CRC calculations       : Yes
Used interface                              : Native Win32 interface for Win NT & 2000
Gap handling                                : Appended to previous track

Used output format              : User Defined Encoder
Selected bitrate                : 896 kBit/s
Quality                         : High
Add ID3 tag                     : No
Command line compressor         : C:\Program Files (x86)\FLAC\flac.exe
Additional command line options : -8 -V -T "ARTIST=%artist%" -T "TITLE=%title%" -T "ALBUM=%albumtitle%" -T "DATE=%year%" -T "TRACKNUMBER=%tracknr%" -T "GENRE=%genre%" -T "PERFORMER=%albuminterpret%" -T "COMPOSER=%composer%" %haslyrics%--tag-from-file=LYRICS="%lyricsfile%"%haslyrics% -T "ALBUMARTIST=%albumartist%" -T "DISCNUMBER=%cdnumber%" -T "TOTALDISCS=%totalcds%" -T "TOTALTRACKS=%numtracks%" -T "COMMENT=%comment%" %source% -o %dest%


TOC of the extracted CD

     Track |   Start  |  Length  | Start sector | End sector 
    ---------------------------------------------------------
        1  |  0:00.00 |  7:50.60 |         0    |    35309   
        2  |  7:50.60 |  7:49.25 |     35310    |    70509   
        3  | 15:40.10 |  5:06.42 |     70510    |    93501   
        4  | 20:46.52 |  6:33.62 |     93502    |   123038   
        5  | 27:20.39 |  7:23.65 |    123039    |   156328   
        6  | 34:44.29 |  7:34.55 |    156329    |   190433   
        7  | 42:19.09 |  5:45.44 |    190434    |   216352   
        8  | 48:04.53 |  6:17.08 |    216353    |   244635   
        9  | 54:21.61 |  6:14.22 |    244636    |   272707   
       10  | 60:36.08 |  5:31.25 |    272708    |   297557   


Track  1

     Filename C:\Users\alessandro\Desktop\what.cd\Grand 12-Inches 14\01 Kurtis Blow The Breaks (Vocal).wav

     Pre-gap length  0:00:02.00

     Peak level 98.8 %
     Extraction speed 2.9 X
     Track quality 99.9 %
     Test CRC 53536035
     Copy CRC 53536035
     Track not present in AccurateRip database
     Copy OK

Track  2

     Filename C:\Users\alessandro\Desktop\what.cd\Grand 12-Inches 14\02 Crown Heights Affair Dancin' (Special Disco Mix).wav

     Pre-gap length  0:00:02.00

     Peak level 98.8 %
     Extraction speed 3.8 X
     Track quality 100.0 %
     Test CRC 2022CF81
     Copy CRC 2022CF81
     Track not present in AccurateRip database
     Copy OK

Track  3

     Filename C:\Users\alessandro\Desktop\what.cd\Grand 12-Inches 14\03 Sister Sledge All-American Girls (Album Version).wav

     Pre-gap length  0:00:02.00

     Peak level 98.8 %
     Extraction speed 4.0 X
     Track quality 100.0 %
     Test CRC 31308FF1
     Copy CRC 31308FF1
     Track not present in AccurateRip database
     Copy OK

Track  4

     Filename C:\Users\alessandro\Desktop\what.cd\Grand 12-Inches 14\04 Narada Michael Walden I Shoulda Loved Ya (Maxi-Single).wav

     Pre-gap length  0:00:02.00

     Peak level 98.8 %
     Extraction speed 4.5 X
     Track quality 100.0 %
     Test CRC 844FFF6D
     Copy CRC 844FFF6D
     Track not present in AccurateRip database
     Copy OK

Track  5

     Filename C:\Users\alessandro\Desktop\what.cd\Grand 12-Inches 14\05 Beggar & Co. (Somebody) Help Me Out (12-inch Version).wav

     Pre-gap length  0:00:02.00

     Peak level 97.7 %
     Extraction speed 4.4 X
     Track quality 99.9 %
     Test CRC B600815F
     Copy CRC B600815F
     Track not present in AccurateRip database
     Copy OK

Track  6

     Filename C:\Users\alessandro\Desktop\what.cd\Grand 12-Inches 14\06 Cher Take Me Home (12-inch Version).wav

     Pre-gap length  0:00:02.00

     Peak level 98.8 %
     Extraction speed 5.2 X
     Track quality 100.0 %
     Test CRC E29913C1
     Copy CRC E29913C1
     Track not present in AccurateRip database
     Copy OK

Track  7

     Filename C:\Users\alessandro\Desktop\what.cd\Grand 12-Inches 14\07 Steven & Sterling Can I Be With You Tonight (12-inch Mix).wav

     Pre-gap length  0:00:02.00

     Peak level 98.8 %
     Extraction speed 4.6 X
     Track quality 99.9 %
     Test CRC 0D716558
     Copy CRC 0D716558
     Track not present in AccurateRip database
     Copy OK

Track  8

     Filename C:\Users\alessandro\Desktop\what.cd\Grand 12-Inches 14\08 The O'Jays Love Train (Extended Version).wav

     Pre-gap length  0:00:02.00

     Peak level 98.8 %
     Extraction speed 5.7 X
     Track quality 100.0 %
     Test CRC ACC20D1B
     Copy CRC ACC20D1B
     Track not present in AccurateRip database
     Copy OK

Track  9

     Filename C:\Users\alessandro\Desktop\what.cd\Grand 12-Inches 14\09 Heatwave Lettin' It Loose (12-inch Version).wav

     Pre-gap length  0:00:02.00

     Peak level 98.8 %
     Extraction speed 6.0 X
     Track quality 100.0 %
     Test CRC FBB3FD00
     Copy CRC FBB3FD00
     Track not present in AccurateRip database
     Copy OK

Track 10

     Filename C:\Users\alessandro\Desktop\what.cd\Grand 12-Inches 14\10 Aquarian Dream You're A Star (Album Version).wav

     Pre-gap length  0:00:02.00

     Peak level 98.8 %
     Extraction speed 5.3 X
     Track quality 99.9 %
     Test CRC 98E6AB40
     Copy CRC 98E6AB40
     Track not present in AccurateRip database
     Copy OK


None of the tracks are present in the AccurateRip database

No errors occurred

End of status report

---- CUETools DB Plugin V2.1.3

[CTDB TOCID: 93iabApfZddhVB21zvTmgEjmf7I-] found, Submit result: 93iabApfZddhVB21zvTmgEjmf7I- has been confirmed
[bc905298] (9/9) Accurately ripped


==== Log checksum E576D863DC09E86E067FB0B97D3CF978FDA7887AEFCE48F2BBF56C80CEA01607 ====



Create a new paste based on this one


Comments: