[ create a new paste ] login | about

Link: http://codepad.org/5P2Twvxt    [ raw code | fork ]

Plain Text, pasted on Dec 1:
foobar2000 1.6 / Dynamic Range Meter 1.1.1
log date: 2020-12-01 01:35:07

--------------------------------------------------------------------------------
Analyzed: Santana / Abraxas (SA-CD Multi-ch Hybrid Edition)
--------------------------------------------------------------------------------

DR         Peak         RMS     Duration Track
--------------------------------------------------------------------------------
DR19      -0.01 dB   -22.41 dB      4:51 01-Singing Winds, Crying Beasts
DR8       -5.47 dB   -20.45 dB      5:25 02-Black Magic Woman / Gypsy Queen
DR9       -5.17 dB   -21.36 dB      4:20 03-Oye Como Va
DR9       -5.69 dB   -21.14 dB      5:06 04-Incident at Neshabur
DR8       -5.30 dB   -20.00 dB      2:52 05-Se a Cabo
DR8       -5.20 dB   -20.09 dB      4:29 06-Mother's Daughter
DR10      -6.88 dB   -22.33 dB      4:48 07-Samba Pa Ti
DR9       -6.53 dB   -20.99 dB      4:10 08-Hope You're Feeling Better
DR9       -5.36 dB   -21.38 dB      1:33 09-El Nicoya
--------------------------------------------------------------------------------

Number of tracks:  9
Official DR value: DR10

Samplerate:        88200 Hz
Channels:          5
Bits per sample:   24
Bitrate:           4780 kbps
Codec:             FLAC
================================================================================




Create a new paste based on this one


Comments: