[ create a new paste ] login | about

Link: http://codepad.org/5XGthnEO    [ raw code | fork ]

Plain Text, pasted on Sep 12:
foobar2000 1.3.10 / Dynamic Range Meter 1.1.1
log date: 2016-09-11 17:47:18

--------------------------------------------------------------------------------
Analyzed: Sting / The Dream of the Blue Turtles
--------------------------------------------------------------------------------

DR         Peak         RMS     Duration Track
--------------------------------------------------------------------------------
DR13      -0.51 dB   -15.95 dB      4:20 01-If You Love Somebody Set Them Free
DR16      -0.55 dB   -18.22 dB      3:32 02-Love Is The Seventh Wave
DR10      -4.02 dB   -16.84 dB      3:58 03-Russians
DR12      -0.89 dB   -17.32 dB      5:02 04-Children's Crusade
DR14      -0.73 dB   -17.03 dB      4:50 05-Shadows In The Rain
DR12      -5.93 dB   -19.80 dB      5:42 06-We Work The Black Seam
DR16      -1.70 dB   -21.42 dB      4:21 07-Consider Me Gone
DR14      -1.02 dB   -19.14 dB      1:18 08-The Dream Of The Blue Turtles
DR12      -7.18 dB   -22.69 dB      4:00 09-Moon Over Bourbon Street
DR15      -0.22 dB   -18.72 dB      4:42 10-Fortress Around Your Heart
--------------------------------------------------------------------------------

Number of tracks:  10
Official DR value: DR14

Samplerate:        44100 Hz
Channels:          2
Bits per sample:   16
Bitrate:           784 kbps
Codec:             WavPack
================================================================================




Create a new paste based on this one


Comments: