[ create a new paste ] login | about

Link: http://codepad.org/5XLDpN9J    [ raw code | fork ]

Plain Text, pasted on Nov 4:
foobar2000 1.3.17 / Dynamic Range Meter 1.1.1
log date: 2018-11-03 16:16:26

--------------------------------------------------------------------------------
Analyzed: Eagles / Legacy
--------------------------------------------------------------------------------

DR         Peak         RMS     Duration Track
--------------------------------------------------------------------------------
DR9       -0.05 dB   -12.49 dB     10:16 71-Long Road Out Of Eden
DR11      -0.77 dB   -15.58 dB      1:38 72-I Dreamed There Was No War
DR11       0.00 dB   -12.12 dB      4:09 73-Somebody
DR10      -0.05 dB   -12.23 dB      5:46 74-Frail Grasp On The Big Picture
DR11       0.00 dB   -12.91 dB      7:07 75-Last Good Time In Town
DR15      -0.09 dB   -17.23 dB      3:16 76-I Love To Watch A Woman Dance
DR11      -0.07 dB   -12.16 dB      5:31 77-Business As Usual
DR11      -0.09 dB   -13.45 dB      3:42 78-Center Of The Universe
DR11       0.00 dB   -13.34 dB      4:20 79-It's Your World Now
--------------------------------------------------------------------------------

Number of tracks:  9
Official DR value: DR11

Samplerate:        96000 Hz
Channels:          2
Bits per sample:   24
Bitrate:           3042 kbps
Codec:             FLAC
================================================================================




Create a new paste based on this one


Comments: