[ create a new paste ] login | about

Link: http://codepad.org/5YBCCQjq    [ raw code | fork ]

Plain Text, pasted on Aug 21:
[CUETools log; Date: 8/21/2019 1:24:12 PM; Version: 2.1.5]
[CTDB TOCID: 9DISpKy6J5WKPYsjNnFe89c_BWk-] found.
Track | CTDB Status
  1   | (269/271) Accurately ripped
  2   | (218/271) Accurately ripped
  3   | (218/271) Accurately ripped
  4   | (218/271) Accurately ripped
  5   | (217/271) Accurately ripped
  6   | (217/271) Accurately ripped
  7   | (217/271) Accurately ripped
  8   | (218/271) Accurately ripped
  9   | (218/271) Accurately ripped
 10   | (218/271) Accurately ripped
 11   | (218/271) Accurately ripped
 12   | (218/271) Accurately ripped
 13   | (218/271) Accurately ripped
 14   | (218/271) Accurately ripped
 15   | (216/271) Accurately ripped
[AccurateRip ID: 0023bb15-01910553-c20f430f] found.
Track   [  CRC   |   V2   ] Status
 01     [c26d9fc4|03b05bcb] (002+088/175) Accurately ripped
 02     [fef48c0d|e7bc8ae0] (002+076/175) Accurately ripped
 03     [af723f3e|024068de] (002+076/175) Accurately ripped
 04     [9971c9dd|fd94116e] (002+076/173) Accurately ripped
 05     [fbb26fdd|24b66efa] (002+075/172) Accurately ripped
 06     [05b7fcba|e6803617] (002+075/173) Accurately ripped
 07     [614bb654|bffb867b] (002+075/172) Accurately ripped
 08     [ce9b7f20|0aa17b84] (002+075/173) Accurately ripped
 09     [bbb1fa51|386e8475] (002+075/173) Accurately ripped
 10     [8cbd4649|b0b55c58] (002+075/172) Accurately ripped
 11     [88953014|70dfdcc4] (002+074/170) Accurately ripped
 12     [58b55246|1bbb63e1] (002+074/170) Accurately ripped
 13     [2dab9f9d|75c365d9] (002+074/169) Accurately ripped
 14     [3bae12c3|bdde639f] (002+075/173) Accurately ripped
 15     [b611b018|56b77d83] (002+075/168) Accurately ripped
Offsetted by 6:
 01     [767d3bef] (007/175) Accurately ripped
 02     [4f0fec65] (007/175) Accurately ripped
 03     [a0de1bbb] (007/175) Accurately ripped
 04     [5f9f9a37] (007/173) Accurately ripped
 05     [9c644ec0] (007/172) Accurately ripped
 06     [1fead6e4] (007/173) Accurately ripped
 07     [63c4805b] (006/172) Accurately ripped
 08     [4219caf4] (007/173) Accurately ripped
 09     [011680b4] (007/173) Accurately ripped
 10     [3b47b4f9] (007/172) Accurately ripped
 11     [fed9026b] (007/170) Accurately ripped
 12     [39fa6548] (006/170) Accurately ripped
 13     [6f70cb7b] (007/169) Accurately ripped
 14     [410f1e4c] (007/173) Accurately ripped
 15     [3e95c48d] (007/168) Accurately ripped
Offsetted by 12:
 01     [6b64d815] (000/175) No match (V2 was not tested)
 02     [632a4cc6] (000/175) No match
 03     [9248f839] (000/175) No match
 04     [d9296a89] (000/173) No match
 05     [0cdd15de] (000/172) No match
 06     [3b1ff1ae] (000/173) No match
 07     [db174a63] (000/172) No match
 08     [17e216ca] (000/173) No match
 09     [f53e2f66] (000/173) No match
 10     [1c5cf1dc] (000/172) No match
 11     [2ad2e797] (000/170) No match
 12     [259c6d46] (000/170) No match
 13     [d9def75c] (000/169) No match
 14     [26db89ec] (000/173) No match
 15     [bb28d906] (000/168) No match

Track Peak [ CRC32  ] [W/O NULL] [  LOG   ]
 --   98.8 [1FA46B27] [79948258]           
 01   98.8 [CF63D54B] [92875455]   CRC32   
 02   98.8 [A65A79B1] [909E9B9C]   CRC32   
 03   98.4 [B432F5FD] [5A0A5B61]   CRC32   
 04   98.0 [01C3A5E8] [4D980E36]   CRC32   
 05   97.8 [79445B15] [2CD2CD63]   CRC32   
 06   98.8 [050EBEC9] [081F9884]   CRC32   
 07   98.3 [56F3C9F4] [C8BA65B4]   CRC32   
 08   98.8 [4A6E89FA] [BCD56340]   CRC32   
 09   98.3 [A0260892] [035C032D]   CRC32   
 10   75.8 [140E15DB] [7FAD56F5]   CRC32   
 11   97.7 [6DF561FC] [08B95987]   CRC32   
 12   98.8 [9FE76061] [12D0A7BE]   CRC32   
 13   98.1 [BDD7A130] [47BCF7FE]   CRC32   
 14   98.5 [4A8E370D] [FF948810]   CRC32   
 15   98.3 [995BDE78] [FE96DFB1]   CRC32   



Create a new paste based on this one


Comments: