[ create a new paste ] login | about

Link: http://codepad.org/5f5Y8ux4    [ raw code | fork ]

Plain Text, pasted on Aug 23:
foobar2000 1.3.16 / Dynamic Range Meter 1.1.1
log date: 2017-08-22 23:31:23

--------------------------------------------------------------------------------
Analyzed: Meat Loaf / Bat Out Of Hell
--------------------------------------------------------------------------------

DR         Peak         RMS     Duration Track
--------------------------------------------------------------------------------
DR12      -5.85 dB   -20.60 dB      9:52 01-Bat Out of Hell
DR11      -7.75 dB   -21.44 dB      5:05 02-You Took the Words Right Out of My Mouth (Hot Summer Night)
DR12      -8.00 dB   -23.88 dB      4:42 03-Heaven Can Wait
DR12      -6.99 dB   -22.23 dB      4:21 04-All Revved Up with No Place to Go
DR14      -5.27 dB   -23.04 dB      5:27 05-Two Out of Three Ain't Bad
DR12      -5.68 dB   -20.50 dB      8:29 06-Paradise by the Dashboard Light
DR11      -6.13 dB   -22.75 dB      8:46 07-For Crying Out Loud
--------------------------------------------------------------------------------

Number of tracks:  7
Official DR value: DR12

Samplerate:        2822400 Hz / PCM Samplerate: 88200 Hz
Channels:          2
Bits per sample:   1
Bitrate:           5645 kbps
Codec:             DSD64
================================================================================




Create a new paste based on this one


Comments: