[ create a new paste ] login | about

Link: http://codepad.org/5gySPbMk    [ raw code | fork ]

Plain Text, pasted on Dec 19:
[CUETools log; Date: 12/19/2018 7:55:29 AM; Version: 2.1.5]
[CTDB TOCID: EGY0I_rd9qK6rI_rvN.7EB_4Crk-] found.
Track | CTDB Status
  1   | (69/70) Accurately ripped
  2   | (69/70) Accurately ripped
  3   | (69/70) Accurately ripped
  4   | (69/70) Accurately ripped
  5   | (69/70) Accurately ripped
  6   | (69/70) Accurately ripped
  7   | (69/70) Accurately ripped
  8   | (69/70) Accurately ripped
  9   | (69/70) Accurately ripped
 10   | (69/70) Accurately ripped
 11   | (69/70) Accurately ripped
 12   | (69/70) Accurately ripped
 13   | (69/70) Accurately ripped
 14   | (69/70) Accurately ripped
 15   | (69/70) Accurately ripped
[AccurateRip ID: 00225995-01872ca5-e00eaf0f] found.
Track   [  CRC   |   V2   ] Status
 01     [31da6d38|949c1c6c] (00+15/15) Accurately ripped
 02     [f6921d62|4f1d5243] (00+15/15) Accurately ripped
 03     [691738e6|475bfed4] (00+15/15) Accurately ripped
 04     [ebf4c031|7767819e] (00+15/15) Accurately ripped
 05     [26d22ae3|da4cf303] (00+15/15) Accurately ripped
 06     [967b9319|e1a0015d] (00+15/15) Accurately ripped
 07     [7fc5f347|1c54df23] (00+15/15) Accurately ripped
 08     [c461a56c|4876b173] (00+15/15) Accurately ripped
 09     [9d6ea11b|09f4f1ce] (00+15/15) Accurately ripped
 10     [41c765c2|1d28632d] (00+15/15) Accurately ripped
 11     [c1f34a68|c7efd2e2] (00+15/15) Accurately ripped
 12     [4179b0e4|7d773a3d] (00+15/15) Accurately ripped
 13     [ba40327a|05001bf5] (00+15/15) Accurately ripped
 14     [50a21dbc|3de6df72] (00+15/15) Accurately ripped
 15     [cf17eef1|7443d79c] (00+15/15) Accurately ripped

Track Peak [ CRC32  ] [W/O NULL] [  LOG   ]
 --   96.6 [EBBEE7D5] [FBA18FAD]   CRC32   
 01   96.6 [16B17239] [D81C63CE]           
 02   96.6 [F5811CEF] [C9BDE8E9]           
 03   96.6 [63BB8299] [DF99B3E0]           
 04   96.6 [25A0A0A0] [327E4BA3]           
 05   96.6 [8FC2F27C] [CBF79C54]           
 06   96.6 [0EF3AD2B] [D279F89B]           
 07   96.6 [DD28F538] [151070DF]           
 08   96.6 [B8181C32] [0EAC09C3]           
 09   96.6 [8EDA956A] [B8CF5BE4]           
 10   96.6 [C715F111] [5FB91782]           
 11   96.6 [42EAE379] [44E3A529]           
 12   96.6 [7B244235] [AB0AF08A]           
 13   96.6 [FBDD3E62] [CF2282E8]           
 14   85.3 [98F999B0] [303EBB88]           
 15   96.6 [4588EBFA] [DCBE8D4E]           



Create a new paste based on this one


Comments: