[ create a new paste ] login | about

Link: http://codepad.org/5noDPf9d    [ raw code | fork ]

Plain Text, pasted on Nov 7:
[CUETools log; Date: 11/6/2016 5:45:44 PM; Version: 2.1.5]
[CTDB TOCID: Z3.5_zimQDgUigndQ4jjZ1WEI8U-] found.
Track | CTDB Status
  1   | (137/139) Accurately ripped
  2   | (137/139) Accurately ripped
  3   | (137/139) Accurately ripped
  4   | (136/139) Accurately ripped
  5   | (137/139) Accurately ripped
  6   | (136/139) Accurately ripped
  7   | (136/139) Accurately ripped
  8   | (136/139) Accurately ripped
  9   | (137/139) Accurately ripped
 10   | (137/139) Accurately ripped
 11   | (137/139) Accurately ripped
 12   | (136/139) Accurately ripped
 13   | (137/139) Accurately ripped
 14   | (137/139) Accurately ripped
[AccurateRip ID: 001ef751-0146917f-c40d550e] found.
Track   [  CRC   |   V2   ] Status
 01     [4a72abbc|220db211] (103+087/292) Accurately ripped
 02     [73bce14e|144efd13] (104+086/291) Accurately ripped
 03     [8956106a|bceaaf03] (102+086/289) Accurately ripped
 04     [935f0a70|70924fdf] (100+086/287) Accurately ripped
 05     [b15fabc8|9cf5b202] (100+083/284) Accurately ripped
 06     [d8554ddf|10b1ca86] (101+084/285) Accurately ripped
 07     [f45dfe9a|5858ccf7] (101+084/286) Accurately ripped
 08     [bc5d78df|77404a8e] (100+084/285) Accurately ripped
 09     [a861e738|331d72c4] (101+084/286) Accurately ripped
 10     [039b5bb7|59fae590] (100+084/285) Accurately ripped
 11     [ac936f8f|8ba1a0f5] (101+084/284) Accurately ripped
 12     [0d2c9f5c|3f36db46] (099+084/285) Accurately ripped
 13     [8cc348ab|cc58d090] (100+083/282) Accurately ripped
 14     [c5c16397|e5f396f5] (099+084/282) Accurately ripped
Offsetted by -658:
 01     [ecf85d36] (004/292) Accurately ripped
 02     [543a63a6] (003/291) Accurately ripped
 03     [e83de05a] (003/289) Accurately ripped
 04     [12742126] (003/287) Accurately ripped
 05     [27b48946] (003/284) Accurately ripped
 06     [c15658ad] (002/285) Accurately ripped
 07     [3020a9c4] (003/286) Accurately ripped
 08     [261f91dd] (003/285) Accurately ripped
 09     [04d7ff70] (003/286) Accurately ripped
 10     [882e58ff] (003/285) Accurately ripped
 11     [82bbe015] (003/284) Accurately ripped
 12     [834df2ae] (003/285) Accurately ripped
 13     [a5b1d1b7] (002/282) Accurately ripped
 14     [34d5f31b] (003/282) Accurately ripped
Offsetted by -640:
 01     [dcda403c] (010/292) Accurately ripped
 02     [2ef65f4e] (010/291) Accurately ripped
 03     [31e69c6a] (010/289) Accurately ripped
 04     [fddbd1f0] (010/287) Accurately ripped
 05     [11cb1d48] (010/284) Accurately ripped
 06     [a9d8435f] (010/285) Accurately ripped
 07     [de58cf1a] (010/286) Accurately ripped
 08     [73604a5f] (010/285) Accurately ripped
 09     [a1d3fd38] (010/286) Accurately ripped
 10     [e4abde10] (010/285) Accurately ripped
 11     [83f75cf6] (010/284) Accurately ripped
 12     [429a11dc] (010/285) Accurately ripped
 13     [c4231fab] (010/282) Accurately ripped
 14     [f8fea097] (010/282) Accurately ripped
Offsetted by 6:
 01     [45134cbe] (040/292) Accurately ripped
 02     [11fb8a86] (038/291) Accurately ripped
 03     [4c8e4f1a] (038/289) Accurately ripped
 04     [372c455e] (038/287) Accurately ripped
 05     [aa11dd1e] (038/284) Accurately ripped
 06     [7b2b46c5] (038/285) Accurately ripped
 07     [83c60b0c] (038/286) Accurately ripped
 08     [2b730bb5] (038/285) Accurately ripped
 09     [320b3bd0] (038/286) Accurately ripped
 10     [2f2ad217] (038/285) Accurately ripped
 11     [f58626bd] (038/284) Accurately ripped
 12     [a245ff16] (039/285) Accurately ripped
 13     [ec3e62a7] (037/282) Accurately ripped
 14     [5c799d6b] (038/282) Accurately ripped
Offsetted by -667:
 01     [f5076bb3] (000/292) No match (V2 was not tested)
 02     [e6dc65d2] (000/291) No match (V2 was not tested)
 03     [43698252] (000/289) No match (V2 was not tested)
 04     [9cc048c1] (000/287) No match (V2 was not tested)
 05     [b2a93f45] (000/284) No match (V2 was not tested)
 06     [4d156354] (000/285) No match (V2 was not tested)
 07     [d9049719] (000/286) No match (V2 was not tested)
 08     [7f7f359c] (000/285) No match (V2 was not tested)
 09     [365a008c] (000/286) No match (V2 was not tested)
 10     [bebb8f91] (000/285) No match (V2 was not tested)
 11     [43776612] (000/284) No match (V2 was not tested)
 12     [23a7e317] (000/285) No match (V2 was not tested)
 13     [16792abd] (000/282) No match (V2 was not tested)
 14     [52c19c5d] (000/282) No match (V2 was not tested)
Offsetted by -661:
 01     [efa80cb5] (000/292) No match (V2 was not tested)
 02     [851b0f0a] (000/291) No match (V2 was not tested)
 03     [06a1c102] (000/289) No match (V2 was not tested)
 04     [408d83af] (000/287) No match (V2 was not tested)
 05     [ab5b709b] (000/284) No match (V2 was not tested)
 06     [efeb5c3a] (000/285) No match (V2 was not tested)
 07     [686ca38b] (000/286) No match (V2 was not tested)
 08     [ee94c872] (000/285) No match (V2 was not tested)
 09     [c0035524] (000/286) No match (V2 was not tested)
 10     [67bb647c] (000/285) No match (V2 was not tested)
 11     [bed76199] (000/284) No match (V2 was not tested)
 12     [b8c142d1] (000/285) No match (V2 was not tested)
 13     [75f444b9] (000/282) No match (V2 was not tested)
 14     [e979d631] (000/282) No match (V2 was not tested)
Offsetted by -132:
 01     [c0a4d590] (000/292) No match (V2 was not tested)
 02     [da5a567e] (000/291) No match (V2 was not tested)
 03     [c280ad4a] (000/289) No match (V2 was not tested)
 04     [7fbbf9fc] (000/287) No match (V2 was not tested)
 05     [520f6e64] (000/284) No match (V2 was not tested)
 06     [d9f1ea1b] (000/285) No match (V2 was not tested)
 07     [a16cecce] (000/286) No match (V2 was not tested)
 08     [3082da7b] (000/285) No match (V2 was not tested)
 09     [d3d4a228] (000/286) No match (V2 was not tested)
 10     [e1faa5e1] (000/285) No match (V2 was not tested)
 11     [86f8d0f1] (000/284) No match (V2 was not tested)
 12     [3cfe6560] (000/285) No match (V2 was not tested)
 13     [582f0d03] (000/282) No match (V2 was not tested)
 14     [d1ec6b5f] (000/282) No match (V2 was not tested)

Track Peak [ CRC32  ] [W/O NULL] [  LOG   ]
 --  100.0 [7ECDFAAE] [FE98383B]   CRC32   
 01  100.0 [E3631C37] [E344B3BB]           
 02  100.0 [86D53969] [380458A4]           
 03  100.0 [7D110D3D] [9C58750C]           
 04  100.0 [C5565D95] [9408B01A]           
 05  100.0 [931E4185] [1FE2EF09]           
 06   99.3 [794378BD] [599D05B3]           
 07  100.0 [B74404DC] [FA697C10]           
 08  100.0 [B7C2CE8A] [4715146E]           
 09  100.0 [A547E36E] [84099A7B]           
 10  100.0 [918FE7C3] [19020317]           
 11  100.0 [DAF5479F] [6204E7E4]           
 12  100.0 [F2B4E00A] [84AF88D3]           
 13  100.0 [4133A64D] [281BFAEE]           
 14   89.8 [5FBE5493] [8D421536]           



Create a new paste based on this one


Comments: