[ create a new paste ] login | about

Link: http://codepad.org/5ouoFBUv    [ raw code | fork ]

Plain Text, pasted on Jul 11:
[CUETools log; Date: 7/11/2018 9:34:05 AM; Version: 2.1.5]
[CTDB TOCID: f1oVqf2XF1TU7_MNBC6vXCWKbNs-] found.
Track | CTDB Status
  1   | (14/14) Accurately ripped
  2   | (14/14) Accurately ripped
  3   | (14/14) Accurately ripped
  4   | (14/14) Accurately ripped
  5   | (14/14) Accurately ripped
  6   | (14/14) Accurately ripped
  7   | (14/14) Accurately ripped
  8   | (14/14) Accurately ripped
  9   | (14/14) Accurately ripped
 10   | (14/14) Accurately ripped
 11   | (14/14) Accurately ripped
 12   | (14/14) Accurately ripped
[AccurateRip ID: 001a9b7b-00f24480-9d0ca70c] found.
Track   [  CRC   |   V2   ] Status
 01     [cc134393|325bbe19] (0+2/2) Accurately ripped
 02     [8e1100c8|770215f7] (0+2/2) Accurately ripped
 03     [dd638340|a54a3ce9] (0+2/2) Accurately ripped
 04     [8f3f1782|2026f872] (0+2/2) Accurately ripped
 05     [5e3c483b|ca83c312] (0+2/2) Accurately ripped
 06     [3e74857a|d4e41f59] (0+2/2) Accurately ripped
 07     [e279d92e|4e72edfd] (0+2/2) Accurately ripped
 08     [b4c69632|186864b9] (0+2/2) Accurately ripped
 09     [fa111b50|448e988e] (0+2/2) Accurately ripped
 10     [0f79f53b|6574e4a6] (0+2/2) Accurately ripped
 11     [0569dbee|ba248d6d] (0+2/2) Accurately ripped
 12     [d9855550|613feec4] (0+2/2) Accurately ripped

Track Peak [ CRC32  ] [W/O NULL] [  LOG   ]
 --   98.8 [D29652B6] [67D47AB8]   CRC32   
 01   98.8 [70C736EC] [F1EF314E]           
 02   98.8 [36799406] [164FC6DA]           
 03   98.8 [08C2F457] [9C0B9794]           
 04   98.8 [02186DB7] [1616887D]           
 05   98.8 [D5496E8E] [C0ADE225]           
 06   98.8 [59492706] [4C6CEB31]           
 07   98.8 [3D13EDD0] [6A377980]           
 08   98.8 [D3D81B6B] [474BE4D2]           
 09   98.8 [C637BECA] [68DAD261]           
 10   98.8 [84BDEE1F] [0BD4239B]           
 11   98.8 [4CF26B3D] [A3236621]           
 12   98.8 [CFF9EE87] [C8684D3B]           



Create a new paste based on this one


Comments: