[ create a new paste ] login | about

Link: http://codepad.org/5q8BWTws    [ raw code | fork ]

Plain Text, pasted on Jan 27:
Exact Audio Copy V1.1 from 23. June 2015

EAC extraction logfile from 2. December 2015, 9:09

Various Artists / Ultimate 90s: 4CDs of the Greatest Muisc from the 1990s (Disc 2)

Used drive  : ASUS    BW-12D1S-U   Adapter: 1  ID: 1

Read mode               : Secure
Utilize accurate stream : Yes
Defeat audio cache      : Yes
Make use of C2 pointers : No

Read offset correction                      : 667
Overread into Lead-In and Lead-Out          : No
Fill up missing offset samples with silence : Yes
Delete leading and trailing silent blocks   : No
Null samples used in CRC calculations       : Yes
Used interface                              : Native Win32 interface for Win NT & 2000
Gap handling                                : Appended to previous track

Used output format              : User Defined Encoder
Selected bitrate                : 1024 kBit/s
Quality                         : High
Add ID3 tag                     : No
Command line compressor         : C:\Program Files (x86)\Kodeki za Glasbo\flac v1.3.1\win64\flac.exe
Additional command line options : -8 -V -T "ARTIST=%artist%" -T "TITLE=%title%" -T "ALBUM=%albumtitle%" -T "DATE=%year%" -T "TRACKNUMBER=%tracknr%" -T "TOTALTRACKS=%numtracks%" -T "GENRE=%genre%" -T "ALBUMARTIST=%albumartist%" -T "ALBUM ARTIST=%albumartist%" -T "COMMENT=EAC Secure Mode, Test & Copy, AccurateRip, FLAC -8" %source%


TOC of the extracted CD

     Track |   Start  |  Length  | Start sector | End sector 
    ---------------------------------------------------------
        1  |  0:00.00 |  4:12.03 |         0    |    18902   
        2  |  4:12.03 |  4:00.44 |     18903    |    36946   
        3  |  8:12.47 |  3:58.16 |     36947    |    54812   
        4  | 12:10.63 |  3:11.02 |     54813    |    69139   
        5  | 15:21.65 |  3:21.20 |     69140    |    84234   
        6  | 18:43.10 |  3:45.61 |     84235    |   101170   
        7  | 22:28.71 |  4:18.44 |    101171    |   120564   
        8  | 26:47.40 |  3:39.69 |    120565    |   137058   
        9  | 30:27.34 |  4:11.31 |    137059    |   155914   
       10  | 34:38.65 |  4:05.58 |    155915    |   174347   
       11  | 38:44.48 |  3:30.05 |    174348    |   190102   
       12  | 42:14.53 |  4:48.21 |    190103    |   211723   
       13  | 47:02.74 |  3:56.19 |    211724    |   229442   
       14  | 50:59.18 |  4:50.31 |    229443    |   251223   
       15  | 55:49.49 |  3:35.73 |    251224    |   267421   
       16  | 59:25.47 |  4:29.56 |    267422    |   287652   
       17  | 63:55.28 |  3:07.06 |    287653    |   301683   
       18  | 67:02.34 |  3:53.21 |    301684    |   319179   


Track  1

     Filename K:\3. my rip in preparation\3 - in treatment\1\CD2\01 - Run-D.M.C. vs. Jason Nevis - It's Lake That.wav

     Pre-gap length  0:00:02.00

     Peak level 98.8 %
     Extraction speed 5.0 X
     Track quality 100.0 %
     Test CRC 951DC766
     Copy CRC 951DC766
     Accurately ripped (confidence 1)  [5F61571D]  (AR v2)
     Copy OK

Track  2

     Filename K:\3. my rip in preparation\3 - in treatment\1\CD2\02 - Tatyana Ali - Boy You Knock Me Out.wav

     Pre-gap length  0:00:01.77

     Peak level 98.8 %
     Extraction speed 5.4 X
     Track quality 100.0 %
     Test CRC 2DA06F9C
     Copy CRC 2DA06F9C
     Accurately ripped (confidence 1)  [63D734E7]  (AR v2)
     Copy OK

Track  3

     Filename K:\3. my rip in preparation\3 - in treatment\1\CD2\03 - DJ Jazzy Jeff & The Fresh Prince - Sommertime.wav

     Pre-gap length  0:00:01.77

     Peak level 98.9 %
     Extraction speed 5.8 X
     Track quality 100.0 %
     Test CRC C62E6583
     Copy CRC C62E6583
     Accurately ripped (confidence 1)  [02A6DDE8]  (AR v2)
     Copy OK

Track  4

     Filename K:\3. my rip in preparation\3 - in treatment\1\CD2\04 - Des'ree - Life.wav

     Pre-gap length  0:00:01.77

     Peak level 97.3 %
     Extraction speed 5.9 X
     Track quality 100.0 %
     Test CRC 7CD71104
     Copy CRC 7CD71104
     Accurately ripped (confidence 1)  [85DAF057]  (AR v2)
     Copy OK

Track  5

     Filename K:\3. my rip in preparation\3 - in treatment\1\CD2\05 - R. Kelly & Public Announcement - She's Got That Vibe.wav

     Pre-gap length  0:00:01.77

     Peak level 99.7 %
     Extraction speed 6.3 X
     Track quality 100.0 %
     Test CRC BBAFB730
     Copy CRC BBAFB730
     Accurately ripped (confidence 1)  [F277D599]  (AR v2)
     Copy OK

Track  6

     Filename K:\3. my rip in preparation\3 - in treatment\1\CD2\06 - Olive - You're Not Alone.wav

     Pre-gap length  0:00:01.77

     Peak level 98.6 %
     Extraction speed 6.7 X
     Track quality 100.0 %
     Test CRC 18727033
     Copy CRC 18727033
     Accurately ripped (confidence 1)  [10075511]  (AR v2)
     Copy OK

Track  7

     Filename K:\3. my rip in preparation\3 - in treatment\1\CD2\07 - Lisa Stansfield - Change.wav

     Pre-gap length  0:00:01.77

     Peak level 99.7 %
     Extraction speed 7.1 X
     Track quality 100.0 %
     Test CRC 33125EC3
     Copy CRC 33125EC3
     Accurately ripped (confidence 1)  [F06F6156]  (AR v2)
     Copy OK

Track  8

     Filename K:\3. my rip in preparation\3 - in treatment\1\CD2\08 - Usher - You Make Me Wanna....wav

     Pre-gap length  0:00:01.77

     Peak level 88.6 %
     Extraction speed 7.3 X
     Track quality 100.0 %
     Test CRC 3752B7F6
     Copy CRC 3752B7F6
     Accurately ripped (confidence 1)  [1F1D76E5]  (AR v2)
     Copy OK

Track  9

     Filename K:\3. my rip in preparation\3 - in treatment\1\CD2\09 - Monica - Angel of Mine.wav

     Pre-gap length  0:00:01.77

     Peak level 99.7 %
     Extraction speed 7.6 X
     Track quality 100.0 %
     Test CRC 5531517C
     Copy CRC 5531517C
     Accurately ripped (confidence 1)  [5828EDC3]  (AR v2)
     Copy OK

Track 10

     Filename K:\3. my rip in preparation\3 - in treatment\1\CD2\10 - Natalia Imbruglia - Torn.wav

     Pre-gap length  0:00:01.77

     Peak level 87.7 %
     Extraction speed 7.8 X
     Track quality 100.0 %
     Test CRC 02CE37A3
     Copy CRC 02CE37A3
     Accurately ripped (confidence 1)  [0B935C7C]  (AR v2)
     Copy OK

Track 11

     Filename K:\3. my rip in preparation\3 - in treatment\1\CD2\11 - Michael Bolton - Steel Bars.wav

     Pre-gap length  0:00:01.77

     Peak level 99.0 %
     Extraction speed 7.8 X
     Track quality 100.0 %
     Test CRC 2858B6FA
     Copy CRC 2858B6FA
     Accurately ripped (confidence 1)  [6BACEE1A]  (AR v2)
     Copy OK

Track 12

     Filename K:\3. my rip in preparation\3 - in treatment\1\CD2\12 - Celin Dion - Think Twice.wav

     Pre-gap length  0:00:01.77

     Peak level 98.8 %
     Extraction speed 8.3 X
     Track quality 100.0 %
     Test CRC DCDB8EE0
     Copy CRC DCDB8EE0
     Accurately ripped (confidence 1)  [3CA9A91C]  (AR v2)
     Copy OK

Track 13

     Filename K:\3. my rip in preparation\3 - in treatment\1\CD2\13 - 3T - I Need You.wav

     Pre-gap length  0:00:01.77

     Peak level 99.7 %
     Extraction speed 8.4 X
     Track quality 100.0 %
     Test CRC 5D23E9B1
     Copy CRC 5D23E9B1
     Accurately ripped (confidence 1)  [17DA304B]  (AR v2)
     Copy OK

Track 14

     Filename K:\3. my rip in preparation\3 - in treatment\1\CD2\14 - Gloria Estefan - Here We Are.wav

     Pre-gap length  0:00:01.77

     Peak level 99.7 %
     Extraction speed 8.9 X
     Track quality 100.0 %
     Test CRC 05B4D62D
     Copy CRC 05B4D62D
     Accurately ripped (confidence 1)  [51D5A944]  (AR v2)
     Copy OK

Track 15

     Filename K:\3. my rip in preparation\3 - in treatment\1\CD2\15 - Another Level - Bomb Diggy.wav

     Pre-gap length  0:00:01.77

     Peak level 98.8 %
     Extraction speed 8.7 X
     Track quality 100.0 %
     Test CRC 7A357F5A
     Copy CRC 7A357F5A
     Accurately ripped (confidence 1)  [6212E23B]  (AR v2)
     Copy OK

Track 16

     Filename K:\3. my rip in preparation\3 - in treatment\1\CD2\16 - TLC - Creep.wav

     Pre-gap length  0:00:01.77

     Peak level 98.8 %
     Extraction speed 9.2 X
     Track quality 100.0 %
     Test CRC F7A57408
     Copy CRC F7A57408
     Accurately ripped (confidence 1)  [B36F7E54]  (AR v2)
     Copy OK

Track 17

     Filename K:\3. my rip in preparation\3 - in treatment\1\CD2\17 - Mary Mary - Shackles (Praise You).wav

     Pre-gap length  0:00:01.77

     Peak level 98.8 %
     Extraction speed 8.9 X
     Track quality 100.0 %
     Test CRC DB0D579F
     Copy CRC DB0D579F
     Accurately ripped (confidence 1)  [6A065640]  (AR v2)
     Copy OK

Track 18

     Filename K:\3. my rip in preparation\3 - in treatment\1\CD2\18 - TQ - Westside.wav

     Pre-gap length  0:00:01.77

     Peak level 98.8 %
     Extraction speed 9.3 X
     Track quality 100.0 %
     Test CRC 5B0FF311
     Copy CRC 5B0FF311
     Accurately ripped (confidence 1)  [8629BB9D]  (AR v2)
     Copy OK


All tracks accurately ripped

No errors occurred

End of status report

---- CUETools DB Plugin V2.1.6

[CTDB TOCID: Fl4mgrgR2qusMvDQIEh7zMU5GLg-] found
Submit result: Fl4mgrgR2qusMvDQIEh7zMU5GLg- has been confirmed
Track | CTDB Status
  1   | (5/5) Accurately ripped
  2   | (5/5) Accurately ripped
  3   | (5/5) Accurately ripped
  4   | (5/5) Accurately ripped
  5   | (5/5) Accurately ripped
  6   | (5/5) Accurately ripped
  7   | (5/5) Accurately ripped
  8   | (5/5) Accurately ripped
  9   | (5/5) Accurately ripped
 10   | (5/5) Accurately ripped
 11   | (5/5) Accurately ripped
 12   | (5/5) Accurately ripped
 13   | (5/5) Accurately ripped
 14   | (5/5) Accurately ripped
 15   | (5/5) Accurately ripped
 16   | (5/5) Accurately ripped
 17   | (5/5) Accurately ripped
 18   | (5/5) Accurately ripped


==== Log checksum FF799850C8F5EA16F4EEE266B287181C6418559F7BE666EA6C75A49682E2DF4F ====



Create a new paste based on this one


Comments: