[ create a new paste ] login | about

Link: http://codepad.org/5t36FFVj    [ raw code | fork ]

Plain Text, pasted on Apr 24:
1
2
3
4
5
6
7
8
9
10
11
12
13
14
15
16
17
18
19
20
21
[CUETools log; Date: 4/24/2018 7:25:53 AM; Version: 2.1.5]
[CTDB TOCID: g_JD_c363Ftog8p.S2Z5JsCMaxg-] found.
Track | CTDB Status
  1   | (89/89) Accurately ripped
  2   | (89/89) Accurately ripped
  3   | (89/89) Accurately ripped
  4   | (88/89) Accurately ripped
[AccurateRip ID: 0007d511-001d64e9-39091804] found.
Track   [  CRC   |   V2   ] Status
 01     [ca0af04b|ed053089] (0+1/1) Accurately ripped
 02     [3ef1a6a1|812d4f2c] (0+1/1) Accurately ripped
 03     [a44446e1|41f28ad6] (0+1/1) Accurately ripped
 04     [2bc085d6|b1509154] (0+1/1) Accurately ripped

Track Peak [ CRC32  ] [W/O NULL] [  LOG   ]
 --   98.8 [9AC9827C] [0342AC36]   CRC32   
 01   98.8 [83633DF5] [E530752F]           
 02   96.7 [C6DA622B] [6DDFE094]           
 03   96.1 [4E7FACAE] [EA1CC6FC]           
 04   98.2 [836FA168] [615B2E1E]           



Create a new paste based on this one


Comments: