[ create a new paste ] login | about

Link: http://codepad.org/5wC7bb4D    [ raw code | fork ]

Plain Text, pasted on Jul 25:
foobar2000 1.3.17 / Dynamic Range Meter 1.1.1
log date: 2018-07-25 09:40:43

--------------------------------------------------------------------------------
Analyzed: Dean Martin / Dean Martin Hits Again
--------------------------------------------------------------------------------

DR         Peak         RMS     Duration Track
--------------------------------------------------------------------------------
DR10      -0.12 dB   -13.40 dB      2:00 01-You're Nobody Till Somebody Loves You
DR10      -0.35 dB   -13.62 dB      2:39 02-I'll Hold You In My Heart (Till I Can Hold You In My Arms)
DR11      -0.38 dB   -14.51 dB      2:40 03-Have A Heart
DR11      -1.04 dB   -14.57 dB      2:03 04-My Heart Is An Open Book
DR11       0.00 dB   -14.45 dB      2:03 05-You'll Always Be The One I Love
DR10      -0.34 dB   -14.25 dB      2:33 06-Send Me The Pillow You Dream On
DR10      -1.95 dB   -14.83 dB      2:35 07-In The Chapel In The Moonlight
DR11      -0.67 dB   -13.80 dB      2:40 08-Send Me Some Lovin'
DR10      -1.33 dB   -13.88 dB      2:45 09-Wedding Bells
DR10      -1.11 dB   -15.12 dB      2:39 10-I'll Be Seeing You
--------------------------------------------------------------------------------

Number of tracks:  10
Official DR value: DR10

Samplerate:        96000 Hz
Channels:          2
Bits per sample:   24
Bitrate:           2930 kbps
Codec:             FLAC
================================================================================




Create a new paste based on this one


Comments: