[ create a new paste ] login | about

Link: http://codepad.org/5wgB4tJT    [ raw code | fork ]

Plain Text, pasted on Feb 27:
CD1
---

Exact Audio Copy V1.6 from 23. October 2020

EAC extraction logfile from 8. February 2021, 20:27

Neil Young & Crazy Horse / Return to Greendale CD1

Used drive  : PLEXTOR DVDR   PX-L890SA   Adapter: 1  ID: 1

Read mode               : Secure
Utilize accurate stream : Yes
Defeat audio cache      : Yes
Make use of C2 pointers : No

Read offset correction                      : 6
Overread into Lead-In and Lead-Out          : No
Fill up missing offset samples with silence : Yes
Delete leading and trailing silent blocks   : No
Null samples used in CRC calculations       : Yes
Used interface                              : Native Win32 interface for Win NT & 2000

Used output format              : User Defined Encoder
Selected bitrate                : 1024 kBit/s
Quality                         : High
Add ID3 tag                     : No
Command line compressor         : C:\Program Files (x86)\Exact Audio Copy\Flac\flac.exe
Additional command line options : -V -8 -T "Date=%year%" -T "Genre=%genre%" %source%


TOC of the extracted CD

     Track |   Start  |  Length  | Start sector | End sector 
    ---------------------------------------------------------
        1  |  0:00.00 |  7:41.46 |         0    |    34620   
        2  |  7:41.46 |  5:32.06 |     34621    |    59526   
        3  | 13:13.52 |  6:22.39 |     59527    |    88215   
        4  | 19:36.16 |  6:34.14 |     88216    |   117779   
        5  | 26:10.30 | 10:39.70 |    117780    |   165774   
        6  | 36:50.25 |  6:34.52 |    165775    |   195376   


Range status and errors

Selected range

     Filename H:\AUDIO\MUSIC\2020. Neil Young - Return To Greendale (Reprise 093624893851, Germany)\CD1\Neil Young & Crazy Horse - Return to Greendale CD1.wav

     Peak level 98.8 %
     Extraction speed 8.3 X
     Range quality 100.0 %
     Test CRC 29E0B728
     Copy CRC 29E0B728
     Copy OK

No errors occurred

 
AccurateRip summary
 
Track  1  accurately ripped (confidence 8)  [5765C184]  (AR v2)
Track  2  accurately ripped (confidence 8)  [57B67204]  (AR v2)
Track  3  accurately ripped (confidence 8)  [610E3AFB]  (AR v2)
Track  4  accurately ripped (confidence 8)  [A2D7C85B]  (AR v2)
Track  5  accurately ripped (confidence 8)  [1EBA1CC7]  (AR v2)
Track  6  accurately ripped (confidence 8)  [F64F6D98]  (AR v2)
 
All tracks accurately ripped

End of status report

==== Log checksum 850BABC513B9DADC94D72BB307ECA27607DA41E2589CC46CF8EBAEDDDB0B443B ====


CD2
---

Exact Audio Copy V1.6 from 23. October 2020

EAC extraction logfile from 8. February 2021, 21:00

Neil Young / Return to Greendale CD2

Used drive  : PLEXTOR DVDR   PX-L890SA   Adapter: 1  ID: 1

Read mode               : Secure
Utilize accurate stream : Yes
Defeat audio cache      : Yes
Make use of C2 pointers : No

Read offset correction                      : 6
Overread into Lead-In and Lead-Out          : No
Fill up missing offset samples with silence : Yes
Delete leading and trailing silent blocks   : No
Null samples used in CRC calculations       : Yes
Used interface                              : Native Win32 interface for Win NT & 2000

Used output format              : User Defined Encoder
Selected bitrate                : 1024 kBit/s
Quality                         : High
Add ID3 tag                     : No
Command line compressor         : C:\Program Files (x86)\Exact Audio Copy\Flac\flac.exe
Additional command line options : -V -8 -T "Date=%year%" -T "Genre=%genre%" %source%


TOC of the extracted CD

     Track |   Start  |  Length  | Start sector | End sector 
    ---------------------------------------------------------
        1  |  0:00.00 | 13:24.23 |         0    |    60322   
        2  | 13:24.23 |  3:17.00 |     60323    |    75097   
        3  | 16:41.23 | 12:18.51 |     75098    |   130498   
        4  | 28:59.74 |  8:19.38 |    130499    |   167961   


Range status and errors

Selected range

     Filename H:\AUDIO\MUSIC\2020. Neil Young - Return To Greendale (Reprise 093624893851, Germany)\CD2\Neil Young - Return to Greendale CD2.wav

     Peak level 98.8 %
     Extraction speed 8.0 X
     Range quality 100.0 %
     Test CRC E5D19B3C
     Copy CRC E5D19B3C
     Copy OK

No errors occurred

 
AccurateRip summary
 
Track  1  accurately ripped (confidence 8)  [7E6D8EB5]  (AR v2)
Track  2  accurately ripped (confidence 8)  [5EEE3B82]  (AR v2)
Track  3  accurately ripped (confidence 8)  [3F861D6C]  (AR v2)
Track  4  accurately ripped (confidence 7)  [F9E1E710]  (AR v2)
 
All tracks accurately ripped

End of status report

==== Log checksum 2A52E8B9A8CACCB35C8F9EB15A5B6BB857BED227526B8084297203DCB7E69BAF ====



Create a new paste based on this one


Comments: