[ create a new paste ] login | about

Link: http://codepad.org/5y10HtlD    [ raw code | fork ]

Plain Text, pasted on Mar 10:
Exact Audio Copy V1.2 from 12. August 2016

EAC extraction logfile from 11. December 2017, 14:14

Various Artists / Milk Of The Tree Vol. 2

Used drive  : HL-DT-STDVD+-RW GU90N   Adapter: 1  ID: 1

Read mode               : Secure
Utilize accurate stream : Yes
Defeat audio cache      : Yes
Make use of C2 pointers : No

Read offset correction                      : 102
Overread into Lead-In and Lead-Out          : No
Fill up missing offset samples with silence : Yes
Delete leading and trailing silent blocks   : No
Null samples used in CRC calculations       : Yes
Used interface                              : Native Win32 interface for Win NT & 2000
Gap handling                                : Appended to previous track

Used output format              : User Defined Encoder
Selected bitrate                : 1024 kBit/s
Quality                         : High
Add ID3 tag                     : No
Command line compressor         : C:\Program Files (x86)\Exact Audio Copy\Flac\flac.exe
Additional command line options : -8 -V -T "ARTIST=%artist%" -T "TITLE=%title%" -T "ALBUM=%albumtitle%" -T "DATE=%year%" -T "TRACKNUMBER=%tracknr%" -T "GENRE=%genre%" -T "PERFORMER=%albuminterpret%" -T "COMPOSER=%composer%" %haslyrics%--tag-from-file=LYRICS="%lyricsfile%"%haslyrics% -T "ALBUMARTIST=%albumartist%" -T "DISCNUMBER=%cdnumber%" -T "TOTALDISCS=%totalcds%" -T "TOTALTRACKS=%numtracks%" -T "COMMENT=%comment%" %source% -o %dest%


TOC of the extracted CD

     Track |   Start  |  Length  | Start sector | End sector 
    ---------------------------------------------------------
        1  |  0:00.00 |  2:39.27 |         0    |    11951   
        2  |  2:39.27 |  2:58.47 |     11952    |    25348   
        3  |  5:37.74 |  4:08.60 |     25349    |    44008   
        4  |  9:46.59 |  2:20.23 |     44009    |    54531   
        5  | 12:07.07 |  3:29.65 |     54532    |    70271   
        6  | 15:36.72 |  4:24.43 |     70272    |    90114   
        7  | 20:01.40 |  2:25.15 |     90115    |   101004   
        8  | 22:26.55 |  3:14.67 |    101005    |   115621   
        9  | 25:41.47 |  4:00.36 |    115622    |   133657   
       10  | 29:42.08 |  2:22.37 |    133658    |   144344   
       11  | 32:04.45 |  2:30.37 |    144345    |   155631   
       12  | 34:35.07 |  4:58.64 |    155632    |   178045   
       13  | 39:33.71 |  3:05.41 |    178046    |   191961   
       14  | 42:39.37 |  5:45.07 |    191962    |   217843   
       15  | 48:24.44 |  2:37.61 |    217844    |   229679   
       16  | 51:02.30 |  2:56.26 |    229680    |   242905   
       17  | 53:58.56 |  4:30.57 |    242906    |   263212   
       18  | 58:29.38 |  3:43.47 |    263213    |   279984   
       19  | 62:13.10 |  3:28.18 |    279985    |   295602   
       20  | 65:41.28 |  6:53.12 |    295603    |   326589   


Track  1

     Filename C:\Users\ian\Desktop\VA - Milk Of The Tree An Anthology Of Female Vocal Folk And Singer Songwriters (1966-73) [FLAC] {3CD}\Milk Of The Tree CD2\01 - Stone Poneys - Different Drum.wav

     Pre-gap length  0:00:02.00

     Peak level 96.6 %
     Extraction speed 1.0 X
     Track quality 99.9 %
     Test CRC 4C2BF357
     Copy CRC 4C2BF357
     Copy OK

Track  2

     Filename C:\Users\ian\Desktop\VA - Milk Of The Tree An Anthology Of Female Vocal Folk And Singer Songwriters (1966-73) [FLAC] {3CD}\Milk Of The Tree CD2\02 - Eclection - Please (MK II).wav

     Pre-gap length  0:00:02.00

     Peak level 96.6 %
     Extraction speed 1.1 X
     Track quality 99.9 %
     Test CRC AE5E5467
     Copy CRC AE5E5467
     Copy OK

Track  3

     Filename C:\Users\ian\Desktop\VA - Milk Of The Tree An Anthology Of Female Vocal Folk And Singer Songwriters (1966-73) [FLAC] {3CD}\Milk Of The Tree CD2\03 - Jade - Five Of Us.wav

     Pre-gap length  0:00:02.00

     Peak level 96.6 %
     Extraction speed 1.4 X
     Track quality 100.0 %
     Test CRC 74613450
     Copy CRC 74613450
     Copy OK

Track  4

     Filename C:\Users\ian\Desktop\VA - Milk Of The Tree An Anthology Of Female Vocal Folk And Singer Songwriters (1966-73) [FLAC] {3CD}\Milk Of The Tree CD2\04 - The Simon Sisters - Who Has Seen The Wind.wav

     Pre-gap length  0:00:02.00

     Peak level 84.6 %
     Extraction speed 1.4 X
     Track quality 100.0 %
     Test CRC 0313E352
     Copy CRC 0313E352
     Copy OK

Track  5

     Filename C:\Users\ian\Desktop\VA - Milk Of The Tree An Anthology Of Female Vocal Folk And Singer Songwriters (1966-73) [FLAC] {3CD}\Milk Of The Tree CD2\05 - Judee Sill - Jesus Was A Cross Maker.wav

     Pre-gap length  0:00:02.00

     Peak level 96.6 %
     Extraction speed 1.6 X
     Track quality 100.0 %
     Test CRC 36E4F9DA
     Copy CRC 36E4F9DA
     Copy OK

Track  6

     Filename C:\Users\ian\Desktop\VA - Milk Of The Tree An Anthology Of Female Vocal Folk And Singer Songwriters (1966-73) [FLAC] {3CD}\Milk Of The Tree CD2\06 - The Woods Band - January's Snows.wav

     Pre-gap length  0:00:02.00

     Peak level 96.6 %
     Extraction speed 1.6 X
     Track quality 99.9 %
     Test CRC BDBBBF54
     Copy CRC BDBBBF54
     Copy OK

Track  7

     Filename C:\Users\ian\Desktop\VA - Milk Of The Tree An Anthology Of Female Vocal Folk And Singer Songwriters (1966-73) [FLAC] {3CD}\Milk Of The Tree CD2\07 - Trader Horne - In My Loneliness.wav

     Pre-gap length  0:00:02.00

     Peak level 96.6 %
     Extraction speed 1.7 X
     Track quality 100.0 %
     Test CRC 13B2FEC9
     Copy CRC 13B2FEC9
     Copy OK

Track  8

     Filename C:\Users\ian\Desktop\VA - Milk Of The Tree An Anthology Of Female Vocal Folk And Singer Songwriters (1966-73) [FLAC] {3CD}\Milk Of The Tree CD2\08 - Janis Ian - Society's Child (Baby I've Been Thinking).wav

     Pre-gap length  0:00:02.00

     Peak level 96.6 %
     Extraction speed 1.5 X
     Track quality 99.9 %
     Test CRC 2C4F8058
     Copy CRC 2C4F8058
     Copy OK

Track  9

     Filename C:\Users\ian\Desktop\VA - Milk Of The Tree An Anthology Of Female Vocal Folk And Singer Songwriters (1966-73) [FLAC] {3CD}\Milk Of The Tree CD2\09 - Lily & Maria - I Was.wav

     Pre-gap length  0:00:02.00

     Peak level 62.1 %
     Extraction speed 1.9 X
     Track quality 100.0 %
     Test CRC B3CA8523
     Copy CRC B3CA8523
     Copy OK

Track 10

     Filename C:\Users\ian\Desktop\VA - Milk Of The Tree An Anthology Of Female Vocal Folk And Singer Songwriters (1966-73) [FLAC] {3CD}\Milk Of The Tree CD2\10 - Mellow Candle - Feeling High.wav

     Pre-gap length  0:00:02.00

     Peak level 92.2 %
     Extraction speed 1.8 X
     Track quality 100.0 %
     Test CRC A16F7004
     Copy CRC A16F7004
     Copy OK

Track 11

     Filename C:\Users\ian\Desktop\VA - Milk Of The Tree An Anthology Of Female Vocal Folk And Singer Songwriters (1966-73) [FLAC] {3CD}\Milk Of The Tree CD2\11 - Tomorrow Come Someday - Tomorrow Come Someday.wav

     Pre-gap length  0:00:02.00

     Peak level 96.6 %
     Extraction speed 1.9 X
     Track quality 100.0 %
     Test CRC D3B16715
     Copy CRC D3B16715
     Copy OK

Track 12

     Filename C:\Users\ian\Desktop\VA - Milk Of The Tree An Anthology Of Female Vocal Folk And Singer Songwriters (1966-73) [FLAC] {3CD}\Milk Of The Tree CD2\12 - Julie Covington - My Silks And Fine Array.wav

     Pre-gap length  0:00:02.00

     Peak level 96.6 %
     Extraction speed 2.2 X
     Track quality 100.0 %
     Test CRC 5D9504C5
     Copy CRC 5D9504C5
     Copy OK

Track 13

     Filename C:\Users\ian\Desktop\VA - Milk Of The Tree An Anthology Of Female Vocal Folk And Singer Songwriters (1966-73) [FLAC] {3CD}\Milk Of The Tree CD2\13 - Norma Waterson - Red Wine And Promises.wav

     Pre-gap length  0:00:02.00

     Peak level 96.6 %
     Extraction speed 2.1 X
     Track quality 100.0 %
     Test CRC CA06F6F4
     Copy CRC CA06F6F4
     Copy OK

Track 14

     Filename C:\Users\ian\Desktop\VA - Milk Of The Tree An Anthology Of Female Vocal Folk And Singer Songwriters (1966-73) [FLAC] {3CD}\Milk Of The Tree CD2\14 - Mr Fox - Mr Fox.wav

     Pre-gap length  0:00:02.00

     Peak level 96.6 %
     Extraction speed 2.4 X
     Track quality 100.0 %
     Test CRC 5D5CC1FC
     Copy CRC 5D5CC1FC
     Copy OK

Track 15

     Filename C:\Users\ian\Desktop\VA - Milk Of The Tree An Anthology Of Female Vocal Folk And Singer Songwriters (1966-73) [FLAC] {3CD}\Milk Of The Tree CD2\15 - Buffy Sainte-Marie - The Dream Tree.wav

     Pre-gap length  0:00:02.00

     Peak level 96.6 %
     Extraction speed 2.2 X
     Track quality 100.0 %
     Test CRC BDC90990
     Copy CRC BDC90990
     Copy OK

Track 16

     Filename C:\Users\ian\Desktop\VA - Milk Of The Tree An Anthology Of Female Vocal Folk And Singer Songwriters (1966-73) [FLAC] {3CD}\Milk Of The Tree CD2\16 - The Academy featuring Polly Perkins - Munching The Candy.wav

     Pre-gap length  0:00:02.00

     Peak level 96.6 %
     Extraction speed 2.3 X
     Track quality 100.0 %
     Test CRC 483166B6
     Copy CRC 483166B6
     Copy OK

Track 17

     Filename C:\Users\ian\Desktop\VA - Milk Of The Tree An Anthology Of Female Vocal Folk And Singer Songwriters (1966-73) [FLAC] {3CD}\Milk Of The Tree CD2\17 - Sandy Denny - Late November.wav

     Pre-gap length  0:00:02.00

     Peak level 96.6 %
     Extraction speed 2.5 X
     Track quality 100.0 %
     Test CRC 4563EF2B
     Copy CRC 4563EF2B
     Copy OK

Track 18

     Filename C:\Users\ian\Desktop\VA - Milk Of The Tree An Anthology Of Female Vocal Folk And Singer Songwriters (1966-73) [FLAC] {3CD}\Milk Of The Tree CD2\18 - Hendrickson Road House - Tomorrow Your Sorrow.wav

     Pre-gap length  0:00:02.00

     Peak level 96.6 %
     Extraction speed 2.5 X
     Track quality 100.0 %
     Test CRC 9FA0152D
     Copy CRC 9FA0152D
     Copy OK

Track 19

     Filename C:\Users\ian\Desktop\VA - Milk Of The Tree An Anthology Of Female Vocal Folk And Singer Songwriters (1966-73) [FLAC] {3CD}\Milk Of The Tree CD2\19 - Chuck & Mary Perrin - Mornings.wav

     Pre-gap length  0:00:02.00

     Peak level 96.6 %
     Extraction speed 2.5 X
     Track quality 100.0 %
     Test CRC 0680CFB2
     Copy CRC 0680CFB2
     Copy OK

Track 20

     Filename C:\Users\ian\Desktop\VA - Milk Of The Tree An Anthology Of Female Vocal Folk And Singer Songwriters (1966-73) [FLAC] {3CD}\Milk Of The Tree CD2\20 - Lesley Dunca - Mr Rubin.wav

     Pre-gap length  0:00:02.00

     Peak level 96.6 %
     Extraction speed 2.8 X
     Track quality 100.0 %
     Test CRC CCFEBA6E
     Copy CRC CCFEBA6E
     Copy OK

No errors occurred

End of status report

---- CUETools DB Plugin V2.1.6

[CTDB TOCID: kPlmMcoVO_mDPMnNAgKqY.I._oo-] found
Submit result: kPlmMcoVO_mDPMnNAgKqY.I._oo- has been confirmed
Track | CTDB Status
  1   | (6/6) Accurately ripped
  2   | (6/6) Accurately ripped
  3   | (6/6) Accurately ripped
  4   | (6/6) Accurately ripped
  5   | (6/6) Accurately ripped
  6   | (6/6) Accurately ripped
  7   | (6/6) Accurately ripped
  8   | (6/6) Accurately ripped
  9   | (6/6) Accurately ripped
 10   | (6/6) Accurately ripped
 11   | (6/6) Accurately ripped
 12   | (6/6) Accurately ripped
 13   | (6/6) Accurately ripped
 14   | (6/6) Accurately ripped
 15   | (6/6) Accurately ripped
 16   | (6/6) Accurately ripped
 17   | (6/6) Accurately ripped
 18   | (6/6) Accurately ripped
 19   | (6/6) Accurately ripped
 20   | (6/6) Accurately ripped


==== Log checksum 728CB393C248E53CAD8AEACBB6B92571C27C1020CAD05044F066D36D3FD92090 ====



Create a new paste based on this one


Comments: