[ create a new paste ] login | about

Link: http://codepad.org/60qHpzyS    [ raw code | fork ]

Plain Text, pasted on Feb 29:
Disc 1
->
foobar2000 1.5 / Dynamic Range Meter 1.1.1
log date: 2020-02-29 05:39:20

--------------------------------------------------------------------------------
Analyzed: Riccardo Minasi violino   Bizzarrie Armoniche / Biber Sonate del  Rosario CD 1
--------------------------------------------------------------------------------

DR         Peak         RMS     Duration Track
--------------------------------------------------------------------------------
DR12      -8.16 dB   -28.17 dB      5:03 01-Sonata 1.  Die Verkündigung - The Annunciation - L Annociation - L Annunciazione
DR13      -6.80 dB   -28.96 dB      6:17 02-Sonata 2. Die Heimsuchung - The Visitation of Mary to Elizabeth - La Visite à Elisabeth - La Visitazione
DR12      -7.69 dB   -28.44 dB      5:59 03-Sonata 3. Die Geburt Christi - The Nativity - La naissance du Christ - La Natività
DR13      -7.27 dB   -28.72 dB      8:44 04-Sonata 4. Christi Darstellung im tempel - The Presentation at the temple - La Présentation au temple - La Presentazione al tempio
DR14      -8.92 dB   -32.46 dB      8:23 05-Sonata 5. Der zwölfjährige Jesus im tempel - Jesus in the temple - Jésus au temple - Gesù fra i dottori al tempio
DR13      -7.25 dB   -30.70 dB      7:47 06-Sonata 6. Christi Leiden am Ölberg - The Agony in the garden - L Agonie au jardin des oliviers - L agonia nell Orto dei Getsemani 
DR14      -6.83 dB   -30.26 dB      9:21 07-Sonata 7.  Die Geisselung - The Scourging of Jesus - La Flagellation - La Flagellazione
DR13      -6.01 dB   -27.30 dB      5:54 08-Sonata 8. Die Dornenkrönung - The Crown of thorns - La Couronne d épines - L Incoronazione di spine
DR13      -6.01 dB   -27.75 dB      5:51 09-Sonata 9. Die Kreuztragung - The Carryng of the Cross - Le Portement de croix -  La Salita al Calvario
DR13      -6.00 dB   -27.74 dB      9:03 10-Sonata 10. Die Kreuzigung - The Crucifixion - La Crucifixion - La Crocifissione
--------------------------------------------------------------------------------

Number of tracks:  10
Official DR value: DR13

Samplerate:        2822400 Hz / PCM Samplerate: 44100 Hz
Channels:          6
Bits per sample:   1
Bitrate:           16934 kbps
Codec:             DST64
================================================================================

--------------------------------------------------------------------------------
Analyzed: Riccardo Minasi violino   Bizzarrie Armoniche / Biber Sonate del  Rosario CD 1
--------------------------------------------------------------------------------

DR         Peak         RMS     Duration Track
--------------------------------------------------------------------------------
DR13      -8.28 dB   -24.84 dB      5:03 01-Sonata 1.  Die Verkündigung - The Annunciation - L Annociation - L Annunciazione
DR14      -7.28 dB   -25.76 dB      6:17 02-Sonata 2. Die Heimsuchung - The Visitation of Mary to Elizabeth - La Visite à Elisabeth - La Visitazione
DR13      -8.06 dB   -25.26 dB      5:59 03-Sonata 3. Die Geburt Christi - The Nativity - La naissance du Christ - La Natività
DR13      -7.98 dB   -25.46 dB      8:44 04-Sonata 4. Christi Darstellung im tempel - The Presentation at the temple - La Présentation au temple - La Presentazione al tempio
DR15      -9.05 dB   -29.22 dB      8:23 05-Sonata 5. Der zwölfjährige Jesus im tempel - Jesus in the temple - Jésus au temple - Gesù fra i dottori al tempio
DR14      -7.54 dB   -27.42 dB      7:47 06-Sonata 6. Christi Leiden am Ölberg - The Agony in the garden - L Agonie au jardin des oliviers - L agonia nell Orto dei Getsemani 
DR14      -7.09 dB   -27.04 dB      9:21 07-Sonata 7.  Die Geisselung - The Scourging of Jesus - La Flagellation - La Flagellazione
DR15      -6.04 dB   -23.97 dB      5:54 08-Sonata 8. Die Dornenkrönung - The Crown of thorns - La Couronne d épines - L Incoronazione di spine
DR14      -6.20 dB   -24.41 dB      5:51 09-Sonata 9. Die Kreuztragung - The Carryng of the Cross - Le Portement de croix -  La Salita al Calvario
DR14      -6.06 dB   -24.44 dB      9:03 10-Sonata 10. Die Kreuzigung - The Crucifixion - La Crucifixion - La Crocifissione
--------------------------------------------------------------------------------

Number of tracks:  10
Official DR value: DR14

Samplerate:        2822400 Hz / PCM Samplerate: 44100 Hz
Channels:          2
Bits per sample:   1
Bitrate:           5645 kbps
Codec:             DST64
================================================================================
->
=========================================================================================================================================================
->
Disc 2
->
foobar2000 1.5 / Dynamic Range Meter 1.1.1
log date: 2020-02-29 05:48:03

--------------------------------------------------------------------------------
Analyzed: Riccardo Minasi violino   Bizzarrie Armoniche / Biber Sonate del  Rosario CD 2
--------------------------------------------------------------------------------

DR         Peak         RMS     Duration Track
--------------------------------------------------------------------------------
DR12      -4.92 dB   -25.96 dB      7:32 01-Sonata 11. Die Auferstehung - The Resurrection - La Résurrection - La Risurrezione
DR14      -4.86 dB   -26.74 dB      8:04 02-Sonata 12. Die Himmelfahrt Christi - The Ascension - L Ascension - L Ascensione
DR13      -5.68 dB   -28.58 dB      8:07 03-Sonata 13. Die Sendung des heiligen Geistes - The descent of the Holy Ghost - La Descente du Saint-Esprit - La Pentecoste
DR13      -4.97 dB   -26.91 dB      7:15 04-Sonata 14. Die Himmelfahrt Mariae - The Assumption of the Virgin - L Assomption de la Vierge - L Assunzione della Vergine Maria
DR14      -5.55 dB   -29.81 dB     11:30 05-Sonata 15. Die Krönung Mariae - The Crowning of the Virgin - Le Couronnement de la Vierge - L Incoronazione della Vergine Maria
DR14      -4.92 dB   -29.17 dB      8:46 06-Passagalia
--------------------------------------------------------------------------------

Number of tracks:  6
Official DR value: DR13

Samplerate:        2822400 Hz / PCM Samplerate: 44100 Hz
Channels:          6
Bits per sample:   1
Bitrate:           16934 kbps
Codec:             DST64
================================================================================

--------------------------------------------------------------------------------
Analyzed: Riccardo Minasi violino   Bizzarrie Armoniche / Biber Sonate del  Rosario CD 2
--------------------------------------------------------------------------------

DR         Peak         RMS     Duration Track
--------------------------------------------------------------------------------
DR13      -5.31 dB   -22.77 dB      7:32 01-Sonata 11. Die Auferstehung - The Resurrection - La Résurrection - La Risurrezione
DR14      -5.24 dB   -23.53 dB      8:04 02-Sonata 12. Die Himmelfahrt Christi - The Ascension - L Ascension - L Ascensione
DR14      -5.90 dB   -25.29 dB      8:07 03-Sonata 13. Die Sendung des heiligen Geistes - The descent of the Holy Ghost - La Descente du Saint-Esprit - La Pentecoste
DR14      -5.51 dB   -23.66 dB      7:15 04-Sonata 14. Die Himmelfahrt Mariae - The Assumption of the Virgin - L Assomption de la Vierge - L Assunzione della Vergine Maria
DR15      -5.98 dB   -26.59 dB     11:30 05-Sonata 15. Die Krönung Mariae - The Crowning of the Virgin - Le Couronnement de la Vierge - L Incoronazione della Vergine Maria
DR15      -5.28 dB   -26.01 dB      8:46 06-Passagalia
--------------------------------------------------------------------------------

Number of tracks:  6
Official DR value: DR14

Samplerate:        2822400 Hz / PCM Samplerate: 44100 Hz
Channels:          2
Bits per sample:   1
Bitrate:           5645 kbps
Codec:             DST64
================================================================================




Create a new paste based on this one


Comments: