[ create a new paste ] login | about

Link: http://codepad.org/650r8S91    [ raw code | fork ]

Plain Text, pasted on Sep 12:
foobar2000 1.5 / Dynamic Range Meter 1.1.1
log date: 2020-09-12 19:09:11

--------------------------------------------------------------------------------
Analyzed: Johnny Cash / I Walk the Line
--------------------------------------------------------------------------------

DR         Peak         RMS     Duration Track
--------------------------------------------------------------------------------
DR11      -0.36 dB   -13.05 dB      2:38 01-I Walk the Line
DR12      -1.26 dB   -14.09 dB      3:00 02-Bad News
DR13      -0.68 dB   -15.01 dB      2:39 03-Folsom Prison Blues
DR11      -0.66 dB   -14.77 dB      2:25 04-Give My Love to Rose
DR11      -0.57 dB   -13.70 dB      2:23 05-Hey Porter
DR11      -1.00 dB   -14.84 dB      3:12 06-I Still Miss Someone
DR11      -2.09 dB   -15.41 dB      2:47 07-Understand Your Man
DR12      -0.32 dB   -13.53 dB      2:50 08-Wreck of the Old 97
DR11      -2.65 dB   -15.35 dB      2:40 09-Still in Town
DR12      -1.23 dB   -14.01 dB      2:23 10-Big River
DR12      -0.49 dB   -14.04 dB      2:29 11-Goodbye, Little Darlin' Goodbye
DR11      -0.34 dB   -13.53 dB      3:52 12-Troublesome Waters
--------------------------------------------------------------------------------

Number of tracks:  12
Official DR value: DR12

Samplerate:        44100 Hz
Channels:          2
Bits per sample:   16
Bitrate:           464 kbps
Codec:             FLAC
================================================================================




Create a new paste based on this one


Comments: