[ create a new paste ] login | about

Link: http://codepad.org/67sAshY9    [ raw code | fork ]

Plain Text, pasted on Jul 15:
foobar2000 1.3.15 / Dynamic Range Meter 1.1.1
log date: 2017-07-15 10:54:20

--------------------------------------------------------------------------------
Analyzed: John Cafferty and the Beaver Brown Band / Eddie and the Cruisers
--------------------------------------------------------------------------------

DR         Peak         RMS     Duration Track
--------------------------------------------------------------------------------
DR11      -6.59 dB   -21.31 dB      2:45 01-01 On The Dark Side
DR12      -6.67 dB   -21.71 dB      4:46 02-02 Tender Years
DR12      -6.98 dB   -20.75 dB      2:17 03-03 Runaround Sue
DR12      -6.66 dB   -21.11 dB      2:36 04-04 Down On My Knees
DR11      -8.94 dB   -22.59 dB      2:27 05-05 Hang Up My Rock And Roll Shoes
DR12      -6.64 dB   -20.14 dB      3:42 06-06 Wild Summer Nights
DR12      -9.38 dB   -23.84 dB      4:33 07-07 Boardwalk Angel
DR12      -7.24 dB   -20.55 dB      1:41 08-08 Betty Lou's Got A New Pair Of Shoes
DR14      -7.30 dB   -23.59 dB      1:48 09-00 Those Oldies But Goodies (Remind Me Of You)
DR10      -8.54 dB   -22.11 dB      6:14 10-10 Season In Hell (Fire Suite)
--------------------------------------------------------------------------------

Number of tracks:  10
Official DR value: DR12

Samplerate:        2822400 Hz / PCM Samplerate: 88200 Hz
Channels:          2
Bits per sample:   1
Bitrate:           5645 kbps
Codec:             DSD64
================================================================================




Create a new paste based on this one


Comments: