[ create a new paste ] login | about

Link: http://codepad.org/6BIm9Azb    [ raw code | fork ]

Plain Text, pasted on Jul 9:
[CUETools log; Date: 7/9/2016 5:32:34 AM; Version: 2.1.5]
[CTDB TOCID: i2HCQvMvxXXyBmdbCCRkvtrkdxU-] found.
Track | CTDB Status
  1   | (33/33) Accurately ripped
  2   | (33/33) Accurately ripped
  3   | (33/33) Accurately ripped
  4   | (33/33) Accurately ripped
  5   | (33/33) Accurately ripped
  6   | (33/33) Accurately ripped
  7   | (33/33) Accurately ripped
  8   | (33/33) Accurately ripped
  9   | (33/33) Accurately ripped
 10   | (33/33) Accurately ripped
[AccurateRip ID: 001c1d7e-00e19079-7d111a0a] found.
Track   [  CRC   |   V2   ] Status
 01     [76bc6a65|445ce2ca] (02+10/12) Accurately ripped
 02     [23a46e84|f1331a9d] (02+10/12) Accurately ripped
 03     [f69e83b6|6ef76d20] (02+10/12) Accurately ripped
 04     [9248d76d|aa95ac8d] (02+10/12) Accurately ripped
 05     [225ccdd9|c998938d] (02+10/12) Accurately ripped
 06     [57a29944|e63da1b3] (02+10/12) Accurately ripped
 07     [2fa2f790|3b64086d] (02+10/12) Accurately ripped
 08     [fd51f18f|e7ef7d4c] (02+10/12) Accurately ripped
 09     [14b7a514|72903c17] (02+10/12) Accurately ripped
 10     [8cccbb9e|5ed36507] (02+10/12) Accurately ripped

Track Peak [ CRC32  ] [W/O NULL] [  LOG   ]
 --   99.0 [C9630A4D] [46773895]           
 01   98.8 [82E5CD9A] [A43F941F]   CRC32   
 02   98.8 [98EA72E9] [7358FA16]   CRC32   
 03   98.8 [AF30ABC5] [7CE3C61F]   CRC32   
 04   99.0 [3CF84AD4] [C86AC827]   CRC32   
 05   98.8 [3930C0A1] [94A8C381]   CRC32   
 06   93.3 [25855B70] [B90E080C]   CRC32   
 07   98.8 [211D8DCE] [81EB1328]   CRC32   
 08   98.8 [73523FEB] [BFBCD52D]   CRC32   
 09   98.8 [63CA816E] [3C9AB09F]   CRC32   
 10   98.8 [B8C164FC] [7C1CEF17]   CRC32   



Create a new paste based on this one


Comments: