[ create a new paste ] login | about

Link: http://codepad.org/6Fx1hOjE    [ raw code | fork ]

Plain Text, pasted on Sep 12:
foobar2000 1.3.17 / Dynamic Range Meter 1.1.1
log date: 2018-09-10 23:01:08

--------------------------------------------------------------------------------
Analyzed: Meat Loaf / Couldn't Have Said It Better
--------------------------------------------------------------------------------

DR         Peak         RMS     Duration Track
--------------------------------------------------------------------------------
DR15      -4.42 dB   -23.08 dB      7:06 01-Couldn't Have Said It Better
DR13      -3.25 dB   -24.40 dB      6:03 02-Did I Say That?
DR12      -3.62 dB   -25.41 dB      4:07 03-Why Isn't That Enough
DR14      -3.16 dB   -22.96 dB      4:10 04-Love You Out Loud
DR15      -2.39 dB   -24.50 dB      6:17 05-Man Of Steel
DR15      -3.70 dB   -24.00 dB      4:57 06-Testify
DR14      -3.70 dB   -23.54 dB      3:37 07-Tear Me Down
DR12      -4.40 dB   -24.38 dB      3:49 08-You're Right, I Was Wrong
DR15      -2.87 dB   -23.09 dB      3:54 09-Because Of You
DR14      -4.19 dB   -23.50 dB      2:35 10-Do It!
DR14      -4.40 dB   -24.18 dB     10:50 11-Forever Young
--------------------------------------------------------------------------------

Number of tracks:  11
Official DR value: DR14

Samplerate:        2822400 Hz / PCM Samplerate: 176400 Hz
Channels:          6
Bits per sample:   1
Bitrate:           16934 kbps
Codec:             DST64
================================================================================

--------------------------------------------------------------------------------
Analyzed: Meat Loaf / Couldn't Have Said It Better
--------------------------------------------------------------------------------

DR         Peak         RMS     Duration Track
--------------------------------------------------------------------------------
DR12      -4.49 dB   -19.45 dB      7:06 01-Couldn't Have Said It Better
DR11      -5.29 dB   -19.45 dB      6:03 02-Did I Say That?
DR10      -6.91 dB   -21.71 dB      4:07 03-Why Isn't That Enough
DR11      -4.56 dB   -17.81 dB      4:10 04-Love You Out Loud
DR12      -5.07 dB   -20.54 dB      6:17 05-Man Of Steel
DR12      -4.83 dB   -20.22 dB      4:57 06-Testify
DR10      -5.63 dB   -18.90 dB      3:37 07-Tear Me Down
DR10      -5.91 dB   -20.74 dB      3:49 08-You're Right, I Was Wrong
DR11      -4.79 dB   -18.19 dB      3:54 09-Because Of You
DR11      -6.04 dB   -19.16 dB      2:35 10-Do It!
DR12      -5.08 dB   -20.10 dB     10:50 11-Forever Young
--------------------------------------------------------------------------------

Number of tracks:  11
Official DR value: DR11

Samplerate:        2822400 Hz / PCM Samplerate: 176400 Hz
Channels:          2
Bits per sample:   1
Bitrate:           5645 kbps
Codec:             DST64
================================================================================




Create a new paste based on this one


Comments: