[ create a new paste ] login | about

Link: http://codepad.org/6JLlhDLE    [ raw code | fork ]

Plain Text, pasted on Oct 12:
foobar2000 1.3.17 / Dynamic Range Meter 1.1.1
log date: 2018-10-06 16:42:33

--------------------------------------------------------------------------------
Analyzed: 3 Doors Down / Away From The Sun
--------------------------------------------------------------------------------

DR         Peak         RMS     Duration Track
--------------------------------------------------------------------------------
DR11      -4.73 dB   -18.01 dB      4:22 01-When I'm Gone
DR12      -4.84 dB   -20.12 dB      3:52 02-Away From The Sun
DR10      -4.96 dB   -18.58 dB      4:00 03-The Road I'm On
DR11      -4.84 dB   -18.96 dB      3:28 04-Ticket To Heaven
DR11      -4.84 dB   -18.26 dB      3:32 05-Running Out Of Days
DR11      -4.87 dB   -19.60 dB      3:58 06-Here Without You
DR11      -4.94 dB   -18.32 dB      4:08 07-I Feel You
DR12      -4.86 dB   -18.55 dB      3:37 08-Dangerous Game
DR11      -4.92 dB   -18.55 dB      3:57 09-Changes
DR11      -4.87 dB   -17.29 dB      3:29 10-Going Down In Flames
DR10      -4.88 dB   -17.58 dB      3:18 11-Sarah Yellin'
DR12      -4.86 dB   -19.82 dB      5:21 12-This Time
--------------------------------------------------------------------------------

Number of tracks:  12
Official DR value: DR11

Samplerate:        2822400 Hz / PCM Samplerate: 176400 Hz
Channels:          6
Bits per sample:   1
Bitrate:           16934 kbps
Codec:             DST64
================================================================================

--------------------------------------------------------------------------------
Analyzed: 3 Doors Down / Away From The Sun
--------------------------------------------------------------------------------

DR         Peak         RMS     Duration Track
--------------------------------------------------------------------------------
DR13      -2.77 dB   -18.12 dB      4:18 01-When I'm Gone
DR14      -3.17 dB   -19.17 dB      3:53 02-Away From The Sun
DR10      -6.34 dB   -18.71 dB      4:01 03-The Road I'm On
DR13      -2.96 dB   -18.79 dB      3:27 04-Ticket To Heaven
DR12      -4.90 dB   -18.71 dB      3:34 05-Running Out Of Days
DR12      -4.36 dB   -19.33 dB      3:57 06-Here Without You
DR12      -3.72 dB   -19.21 dB      4:06 07-I Feel You
DR13      -3.03 dB   -18.60 dB      3:36 08-Dangerous Game
DR11      -4.72 dB   -18.74 dB      3:57 09-Changes
DR10      -6.80 dB   -17.61 dB      3:28 10-Going Down In Flames
DR10      -4.59 dB   -17.58 dB      3:18 11-Sarah Yellin'
DR12      -4.26 dB   -19.18 dB      5:19 12-This Time
--------------------------------------------------------------------------------

Number of tracks:  12
Official DR value: DR12

Samplerate:        2822400 Hz / PCM Samplerate: 176400 Hz
Channels:          2
Bits per sample:   1
Bitrate:           5645 kbps
Codec:             DST64
================================================================================




Create a new paste based on this one


Comments: