[ create a new paste ] login | about

Link: http://codepad.org/6Kv1CT2X    [ raw code | fork ]

Plain Text, pasted on Apr 27:
foobar2000 1.3.14 / Dynamic Range Meter 1.1.1
log date: 2017-04-27 09:44:07

--------------------------------------------------------------------------------
Analyzed: Frank Sinatra / Sinatra's Swingin' Session
--------------------------------------------------------------------------------

DR         Peak         RMS     Duration Track
--------------------------------------------------------------------------------
DR11      -6.20 dB   -19.93 dB      2:01 01-When You're Smiling
DR12      -5.90 dB   -19.65 dB      2:52 02-Blue Moon
DR11      -6.38 dB   -20.51 dB      1:49 03-S'Posin
DR11      -6.14 dB   -21.25 dB      2:03 04-It All Depends on You
DR12      -6.12 dB   -21.34 dB      2:20 05-It's Only a Paper Moon
DR11      -6.16 dB   -20.49 dB      2:05 06-My Blue Heaven
DR12      -6.16 dB   -20.44 dB      1:32 07-Should I?
DR12      -6.20 dB   -21.00 dB      2:59 08-September in the Rain
DR12      -6.38 dB   -20.85 dB      2:18 09-Always
DR12      -6.43 dB   -21.76 dB      2:26 10-I Can't Believe That You're in Love with Me
DR11      -6.30 dB   -20.96 dB      2:24 11-I Concentrate on You
DR11      -6.19 dB   -21.05 dB      1:32 12-You Do Something to Me
--------------------------------------------------------------------------------

Number of tracks:  12
Official DR value: DR11

Samplerate:        2822400 Hz / PCM Samplerate: 88200 Hz
Channels:          2
Bits per sample:   1
Bitrate:           5645 kbps
Codec:             DSD64
================================================================================




Create a new paste based on this one


Comments: