[ create a new paste ] login | about

Link: http://codepad.org/6NVmd60H    [ raw code | fork ]

Plain Text, pasted on Aug 7:
foobar2000 1.3.17 / Dynamic Range Meter 1.1.1
log date: 2018-08-06 13:21:03

--------------------------------------------------------------------------------
Analyzed: Rod Stewart / Absolutely Live
--------------------------------------------------------------------------------

DR         Peak         RMS     Duration Track
--------------------------------------------------------------------------------
DR12      -6.43 dB   -19.41 dB      0:11 01-The Stripper [1982 Live Version]
DR11      -0.10 dB   -12.59 dB      4:11 02-Tonight I'm Yours (Don't Hurt Me) [1982 Live Version]
DR11      -0.10 dB   -12.44 dB      4:26 03-Sweet Little Rock And Roller [1982 Live Version]
DR12      -0.10 dB   -12.98 dB      4:53 04-Hot Legs [1982 Live Version]
DR11      -0.10 dB   -13.38 dB      4:11 05-Tonight's The Night [Gonna Be Alright] [1982 Live Version]
DR13      -0.11 dB   -14.93 dB      3:52 06-The Great Pretender [1982 Live Version]
DR12      -0.10 dB   -13.78 dB      5:30 07-Passion [1982 Live Version]
DR10      -0.10 dB   -11.84 dB      4:56 08-She Won't Dance With Me / Little Queenie [1982 Live Version]
DR12      -0.10 dB   -16.51 dB      5:25 09-You're In My Heart [The Final Acclaim] [1982 Live Version]
DR12      -0.10 dB   -13.21 dB      4:48 10-Rock My Plimsoul [1982 Live Version]
DR11      -0.10 dB   -12.81 dB      5:10 11-Young Turks [1982 Live Version]
DR13      -1.17 dB   -15.48 dB      4:59 12-Guess I'll Always Love You [1982 Live Version]
DR12      -2.26 dB   -17.36 dB      2:16 13-Gasoline Alley [1982 Live Version]
DR12      -0.10 dB   -14.00 dB      5:10 14-Maggie May [1982 Live Version]
DR11      -0.10 dB   -12.52 dB      3:26 15-Tear It Up [1982 Live Version]
DR12      -0.10 dB   -13.50 dB      6:05 16-Da Ya Think I'm Sexy [1982 Live Version]
DR11      -0.10 dB   -14.14 dB      4:46 17-Sailing [1982 Live Version]
DR11      -0.10 dB   -16.09 dB      4:35 18-I Don't Want To Talk About It [1982 Live Version]
DR12      -0.10 dB   -14.03 dB      5:35 19-Stay With Me [1982 Live Version]
--------------------------------------------------------------------------------

Number of tracks:  19
Official DR value: DR12

Samplerate:        192000 Hz
Channels:          2
Bits per sample:   24
Bitrate:           5072 kbps
Codec:             FLAC
================================================================================




Create a new paste based on this one


Comments: