[ create a new paste ] login | about

Link: http://codepad.org/6SFzFBXQ    [ raw code | fork ]

Plain Text, pasted on Apr 24:
Exact Audio Copy V0.99 prebeta 5 from 4. May 2009

EAC extraction logfile from 19. February 2011, 23:25

Little Richard / The Specialty Sessions 6CD. CD4

Used drive  : PLEXTOR CD-R   PREMIUM   Adapter: 0  ID: 1

Read mode               : Secure
Utilize accurate stream : Yes
Defeat audio cache      : Yes
Make use of C2 pointers : No

Read offset correction                      : 30
Overread into Lead-In and Lead-Out          : No
Fill up missing offset samples with silence : Yes
Delete leading and trailing silent blocks   : No
Null samples used in CRC calculations       : Yes
Used interface                              : Installed external ASPI interface

Used output format              : User Defined Encoder
Selected bitrate                : 768 kBit/s
Quality                         : High
Add ID3 tag                     : No
Command line compressor         : D:\Program Files\Exact Audio Copy\FLAC\FLAC.EXE
Additional command line options : -8 -V -T "ARTIST=%a" -T "TITLE=%t" -T "ALBUM=%g" -T "DATE=%y" -T "TRACKNUMBER=%n" -T "GENRE=%m" -T "COMMENT=EAC FLAC -8" %s


TOC of the extracted CD

     Track |   Start  |  Length  | Start sector | End sector 
    ---------------------------------------------------------
        1  |  0:00.33 |  2:12.62 |        33    |     9994   
        2  |  2:13.20 |  2:06.00 |      9995    |    19444   
        3  |  4:19.20 |  1:50.48 |     19445    |    27742   
        4  |  6:09.68 |  0:57.72 |     27743    |    32089   
        5  |  7:07.65 |  2:11.65 |     32090    |    41979   
        6  |  9:19.55 |  1:31.25 |     41980    |    48829   
        7  | 10:51.05 |  2:27.55 |     48830    |    59909   
        8  | 13:18.60 |  2:11.73 |     59910    |    69807   
        9  | 15:30.58 |  2:12.57 |     69808    |    79764   
       10  | 17:43.40 |  2:00.40 |     79765    |    88804   
       11  | 19:44.05 |  2:29.55 |     88805    |   100034   
       12  | 22:13.60 |  2:55.33 |    100035    |   113192   
       13  | 25:09.18 |  3:13.32 |    113193    |   127699   
       14  | 28:22.50 |  2:31.70 |    127700    |   139094   
       15  | 30:54.45 |  2:29.03 |    139095    |   150272   
       16  | 33:23.48 |  2:20.05 |    150273    |   160777   
       17  | 35:43.53 |  2:30.05 |    160778    |   172032   
       18  | 38:13.58 |  2:29.27 |    172033    |   183234   
       19  | 40:43.10 |  2:27.18 |    183235    |   194277   
       20  | 43:10.28 |  2:53.12 |    194278    |   207264   
       21  | 46:03.40 |  2:35.65 |    207265    |   218954   
       22  | 48:39.30 |  2:02.70 |    218955    |   228174   
       23  | 50:42.25 |  2:04.48 |    228175    |   237522   
       24  | 52:46.73 |  2:20.02 |    237523    |   248024   
       25  | 55:07.00 |  2:19.40 |    248025    |   258489   
       26  | 57:26.40 |  2:37.50 |    258490    |   270314   
       27  | 60:04.15 |  2:13.43 |    270315    |   280332   


Range status and errors

Selected range

     Filename I:\Little Richard - 6CD\cd4\Little Richard - The Specialty Sessions 6CD. CD4.wav

     Peak level 85.1 %
     Range quality 100.0 %
     Test CRC C49FB100
     Copy CRC C49FB100
     Copy OK

No errors occurred

 
AccurateRip summary
 
Track  1  accurately ripped (confidence 4)  [C102F233]
Track  2  accurately ripped (confidence 4)  [E99DD4C3]
Track  3  accurately ripped (confidence 4)  [EB39F923]
Track  4  accurately ripped (confidence 4)  [14A2705C]
Track  5  accurately ripped (confidence 4)  [8C9402AB]
Track  6  accurately ripped (confidence 4)  [9E59C3FD]
Track  7  accurately ripped (confidence 4)  [808DF819]
Track  8  accurately ripped (confidence 4)  [B449A4D1]
Track  9  accurately ripped (confidence 4)  [B50FF496]
Track 10  accurately ripped (confidence 4)  [2AF34CD8]
Track 11  accurately ripped (confidence 4)  [3F2078CA]
Track 12  accurately ripped (confidence 4)  [59FDC1BA]
Track 13  accurately ripped (confidence 4)  [C7AB49CE]
Track 14  accurately ripped (confidence 4)  [B9368355]
Track 15  accurately ripped (confidence 4)  [C609CE26]
Track 16  accurately ripped (confidence 4)  [2EB929D5]
Track 17  accurately ripped (confidence 4)  [4872D590]
Track 18  accurately ripped (confidence 4)  [E13166EC]
Track 19  accurately ripped (confidence 4)  [87B95A75]
Track 20  accurately ripped (confidence 4)  [AF43C6A2]
Track 21  accurately ripped (confidence 4)  [52BBB146]
Track 22  accurately ripped (confidence 4)  [EC090C0D]
Track 23  accurately ripped (confidence 4)  [F3DCFE0F]
Track 24  accurately ripped (confidence 4)  [B09BE029]
Track 25  accurately ripped (confidence 4)  [B85488B6]
Track 26  accurately ripped (confidence 4)  [8014BDAB]
Track 27  accurately ripped (confidence 4)  [52B9544F]
 
All tracks accurately ripped

End of status report



Create a new paste based on this one


Comments: