[ create a new paste ] login | about

Link: http://codepad.org/6SjSs8A4    [ raw code | fork ]

Plain Text, pasted on Feb 22:
Exact Audio Copy V0.99 prebeta 4 from 23. January 2008

Отчёт EAC об извлечении, выполненном 15. июля 2008, 15:08

Blood, Sweat & Tears / Blood, Sweat & Tears

Дисковод: ASUS    DRW-1814BL   Adapter: 1  ID: 0

Режим чтения                 : Достоверность
Использование точного потока : Да
Отключение кэша аудио        : Да
Использование указателей C2  : Нет

Коррекция смещения при чтении                     : 6
Способность читать области Lead-in и Lead-out     : Нет
Заполнение пропущенных сэмплов тишиной            : Да
Удаление блоков с тишиной в начале и конце        : Нет
При вычислениях CRC использовались нулевые сэмплы : Да
Интерфейс                                         : Установленный внешний ASPI-интерфейс

Выходной формат          : Пользовательский кодировщик
Выбранный битрейт        : 128 kBit/s
Качество                 : Высокий
Добавление ID3-тэга      : Нет
Утилита сжатия           : C:\Program Files\FLAC\FLAC frontend.exe
Дополнительные параметры : -T "artist=%a" -T "title=%t" -T "album=%g" -T "date=%y" -T "tracknumber=%n" -T "genre=%m" -5 %s


TOC извлечённого CD

     Трек |   Старт  | Длительность | Начальный сектор | Конечный сектор 
    ---------------------------------------------------------------------
       1  |  0:00.00 |    2:36.62   |           0      |      11761      
       2  |  2:36.62 |    5:11.60   |       11762      |      35146      
       3  |  7:48.47 |    3:09.50   |       35147      |      49371      
       4  | 10:58.22 |    3:05.00   |       49372      |      63246      
       5  | 14:03.22 |    4:06.73   |       63247      |      81769      
       6  | 18:10.20 |    5:53.52   |       81770      |     108296      
       7  | 24:03.72 |    4:08.50   |      108297      |     126946      
       8  | 28:12.47 |    4:20.00   |      126947      |     146446      
       9  | 32:32.47 |   11:45.55   |      146447      |     199376      
      10  | 44:18.27 |    1:43.55   |      199377      |     207156      
      11  | 46:02.07 |    4:37.53   |      207157      |     227984      
      12  | 50:39.60 |   18:44.15   |      227985      |     312299      


Характеристики диапазона извлечения и сообщения об ошибках

Выбранный диапазон

     Имя файла H:\Downloads\Blood, Sweat & Tears - Blood, Sweat & Tears (1969)\Blood, Sweat & Tears - Blood, Sweat & Tears.wav

     Пиковый уровень 100.0 %
     Качество диапазона 100.0 %
     CRC копии E9F28CF4
     Копирование... OK

Ошибок не произошло

 
AccurateRip: сводка
 
Трек  1  точное извлечение (доверие 4)  [E41EDB51]
Трек  2  точное извлечение (доверие 4)  [CC6AD8BE]
Трек  3  точное извлечение (доверие 4)  [4F4BFD21]
Трек  4  точное извлечение (доверие 4)  [6E9D3702]
Трек  5  точное извлечение (доверие 4)  [D9DA0219]
Трек  6  точное извлечение (доверие 4)  [9CEAA435]
Трек  7  точное извлечение (доверие 4)  [5F693E44]
Трек  8  точное извлечение (доверие 4)  [A8E5DBDD]
Трек  9  точное извлечение (доверие 4)  [1F5E6FBE]
Трек 10  точное извлечение (доверие 4)  [88997CE7]
Трек 11  точное извлечение (доверие 4)  [47930846]
Трек 12  точное извлечение (доверие 4)  [AB80799F]
 
Все треки извлечены точно

Конец отчёта



Create a new paste based on this one


Comments: