[ create a new paste ] login | about

Link: http://codepad.org/6TtUO5Md    [ raw code | fork ]

Plain Text, pasted on Dec 28:
Exact Audio Copy V1.3 from 2. September 2016

EAC extraction logfile from 16. December 2018, 18:38

Kate Bush / Before The Dawn Act I

Used drive  : PLEXTOR BD-R  PX-B950SA   Adapter: 1  ID: 1

Read mode               : Secure
Utilize accurate stream : Yes
Defeat audio cache      : Yes
Make use of C2 pointers : No

Read offset correction                      : 6
Overread into Lead-In and Lead-Out          : No
Fill up missing offset samples with silence : Yes
Delete leading and trailing silent blocks   : No
Null samples used in CRC calculations       : Yes
Used interface                              : Native Win32 interface for Win NT & 2000

Used output format : Internal WAV Routines
Sample format      : 44.100 Hz; 16 Bit; Stereo


TOC of the extracted CD

     Track |   Start  |  Length  | Start sector | End sector 
    ---------------------------------------------------------
        1  |  0:00.00 |  4:48.21 |         0    |    21620   
        2  |  4:48.21 |  3:33.14 |     21621    |    37609   
        3  |  8:21.35 |  6:07.09 |     37610    |    65143   
        4  | 14:28.44 |  5:24.00 |     65144    |    89443   
        5  | 19:52.44 |  5:55.00 |     89444    |   116068   
        6  | 25:47.44 |  5:40.70 |    116069    |   141638   
        7  | 31:28.39 |  8:05.62 |    141639    |   178075   


Range status and errors

Selected range

     Filename C:\Kate Bush\2018 Remastered Part II (11CD Box Set Fish People)\2016 Before The Dawn 3CD\Act I\Kate Bush - Before The Dawn Act I.wav

     Peak level 100.0 %
     Extraction speed 6.8 X
     Range quality 100.0 %
     Test CRC 1965310C
     Copy CRC 1965310C
     Copy OK

No errors occurred

 
AccurateRip summary
 
Track  1  accurately ripped (confidence 200)  [CFA963F3]  (AR v2)
Track  2  accurately ripped (confidence 200)  [C7C80D40]  (AR v2)
Track  3  accurately ripped (confidence 200)  [B2E629F5]  (AR v2)
Track  4  accurately ripped (confidence 200)  [B713310F]  (AR v2)
Track  5  accurately ripped (confidence 200)  [E25A081D]  (AR v2)
Track  6  accurately ripped (confidence 200)  [7DE6F098]  (AR v2)
Track  7  accurately ripped (confidence 200)  [C021A03B]  (AR v2)
 
All tracks accurately ripped

End of status report

---- CUETools DB Plugin V2.1.6

[CTDB TOCID: qpYgzpTorcRi7mEOQSfGk9bRQf0-] found
Submit result: qpYgzpTorcRi7mEOQSfGk9bRQf0- has been confirmed
Track | CTDB Status
  1   | (970/974) Accurately ripped
  2   | (970/974) Accurately ripped
  3   | (969/974) Accurately ripped
  4   | (968/974) Accurately ripped
  5   | (966/974) Accurately ripped
  6   | (965/974) Accurately ripped
  7   | (962/974) Accurately ripped


==== Log checksum 18925CF8AE57FD83348E7910DEB65D693419652B0C835CA8D1AF0C0260325939 ====


Exact Audio Copy V1.3 from 2. September 2016

EAC extraction logfile from 16. December 2018, 18:12

Kate Bush / Before The Dawn Act II

Used drive  : PLEXTOR BD-R  PX-B950SA   Adapter: 1  ID: 1

Read mode               : Secure
Utilize accurate stream : Yes
Defeat audio cache      : Yes
Make use of C2 pointers : No

Read offset correction                      : 6
Overread into Lead-In and Lead-Out          : No
Fill up missing offset samples with silence : Yes
Delete leading and trailing silent blocks   : No
Null samples used in CRC calculations       : Yes
Used interface                              : Native Win32 interface for Win NT & 2000

Used output format : Internal WAV Routines
Sample format      : 44.100 Hz; 16 Bit; Stereo


TOC of the extracted CD

     Track |   Start  |  Length  | Start sector | End sector 
    ---------------------------------------------------------
        1  |  0:00.00 |  2:44.27 |         0    |    12326   
        2  |  2:44.27 |  3:37.30 |     12327    |    28631   
        3  |  6:21.57 |  3:04.27 |     28632    |    42458   
        4  |  9:26.09 |  6:38.54 |     42459    |    72362   
        5  | 16:04.63 |  1:57.54 |     72363    |    81191   
        6  | 18:02.42 |  4:23.48 |     81192    |   100964   
        7  | 22:26.15 |  2:08.03 |    100965    |   110567   
        8  | 24:34.18 |  4:11.62 |    110568    |   129454   
        9  | 28:46.05 |  7:55.28 |    129455    |   165107   
       10  | 36:41.33 |  5:23.69 |    165108    |   189401   


Range status and errors

Selected range

     Filename C:\Kate Bush\2018 Remastered Part II (11CD Box Set Fish People)\2016 Before The Dawn 3CD\Act II\Kate Bush - Before The Dawn Act II.wav

     Peak level 100.0 %
     Extraction speed 3.1 X
     Range quality 100.0 %
     Test CRC 5764C190
     Copy CRC 5764C190
     Copy OK

No errors occurred

 
AccurateRip summary
 
Track  1  accurately ripped (confidence 200)  [177E7641]  (AR v2)
Track  2  accurately ripped (confidence 200)  [8D2B97B2]  (AR v2)
Track  3  accurately ripped (confidence 200)  [D73E5A9E]  (AR v2)
Track  4  accurately ripped (confidence 200)  [13FEEB3C]  (AR v2)
Track  5  accurately ripped (confidence 200)  [15C244F5]  (AR v2)
Track  6  accurately ripped (confidence 200)  [57C699A0]  (AR v2)
Track  7  accurately ripped (confidence 200)  [9DAA49EC]  (AR v2)
Track  8  accurately ripped (confidence 200)  [36EF727B]  (AR v2)
Track  9  accurately ripped (confidence 200)  [1A682DC3]  (AR v2)
Track 10  accurately ripped (confidence 200)  [496DE69F]  (AR v2)
 
All tracks accurately ripped

End of status report

---- CUETools DB Plugin V2.1.6

[CTDB TOCID: 3LjqE15s.OSyt4BSnlpHTET5Rd8-] found
Submit result: 3LjqE15s.OSyt4BSnlpHTET5Rd8- has been confirmed
Track | CTDB Status
  1   | (941/946) Accurately ripped
  2   | (942/946) Accurately ripped
  3   | (934/946) Accurately ripped, or (5/946) differs in 175 samples @01:32:12, or (2/946) differs in 249 samples @01:32:11-01:32:13
  4   | (938/946) Accurately ripped
  5   | (940/946) Accurately ripped
  6   | (942/946) Accurately ripped
  7   | (943/946) Accurately ripped
  8   | (939/946) Accurately ripped
  9   | (941/946) Accurately ripped
 10   | (940/946) Accurately ripped


==== Log checksum 861B93C4965025E602BC062C48D3E71B7A3CBADB2EEB2E79B058F0CF95AC2C00 ====


Exact Audio Copy V1.3 from 2. September 2016

EAC extraction logfile from 16. December 2018, 11:38

Kate Bush / Before The Dawn Act III

Used drive  : PLEXTOR BD-R  PX-B950SA   Adapter: 1  ID: 1

Read mode               : Secure
Utilize accurate stream : Yes
Defeat audio cache      : Yes
Make use of C2 pointers : No

Read offset correction                      : 6
Overread into Lead-In and Lead-Out          : No
Fill up missing offset samples with silence : Yes
Delete leading and trailing silent blocks   : No
Null samples used in CRC calculations       : Yes
Used interface                              : Native Win32 interface for Win NT & 2000

Used output format : Internal WAV Routines
Sample format      : 44.100 Hz; 16 Bit; Stereo


TOC of the extracted CD

     Track |   Start  |  Length  | Start sector | End sector 
    ---------------------------------------------------------
        1  |  0:00.00 |  1:55.65 |         0    |     8689   
        2  |  1:55.65 | 10:10.00 |      8690    |    54439   
        3  | 12:05.65 |  5:22.28 |     54440    |    78617   
        4  | 17:28.18 |  1:39.47 |     78618    |    86089   
        5  | 19:07.65 |  8:00.50 |     86090    |   122139   
        6  | 27:08.40 |  1:30.53 |    122140    |   128942   
        7  | 28:39.18 |  6:59.17 |    128943    |   160384   
        8  | 35:38.35 |  6:08.15 |    160385    |   187999   
        9  | 41:46.50 |  8:51.67 |    188000    |   227891   
       10  | 50:38.42 |  9:43.60 |    227892    |   271676   
       11  | 60:22.27 |  5:48.71 |    271677    |   297847   
       12  | 66:11.23 |  7:16.52 |    297848    |   330599   


Range status and errors

Selected range

     Filename C:\Kate Bush\2018 Remastered Part II (11CD Box Set Fish People)\2016 Before The Dawn 3CD\Act III\Kate Bush - Before The Dawn Act III.wav

     Peak level 100.0 %
     Extraction speed 8.0 X
     Range quality 99.9 %
     Test CRC E4866C51
     Copy CRC E4866C51
     Copy OK

No errors occurred

 
AccurateRip summary
 
Track  1  accurately ripped (confidence 200)  [46249280]  (AR v2)
Track  2  accurately ripped (confidence 200)  [1F443E8B]  (AR v2)
Track  3  accurately ripped (confidence 200)  [B355B362]  (AR v2)
Track  4  accurately ripped (confidence 200)  [D4177A14]  (AR v2)
Track  5  accurately ripped (confidence 200)  [E9B3DB28]  (AR v2)
Track  6  accurately ripped (confidence 200)  [E19BD9D2]  (AR v2)
Track  7  accurately ripped (confidence 200)  [0B87E2AB]  (AR v2)
Track  8  accurately ripped (confidence 200)  [5D1B9B61]  (AR v2)
Track  9  accurately ripped (confidence 200)  [F4F22123]  (AR v2)
Track 10  accurately ripped (confidence 200)  [C13BDCD6]  (AR v2)
Track 11  accurately ripped (confidence 200)  [A7B58518]  (AR v2)
Track 12  accurately ripped (confidence 200)  [60040073]  (AR v2)
 
All tracks accurately ripped

End of status report

---- CUETools DB Plugin V2.1.6

[CTDB TOCID: UYOcL.tSINfyL16PIk1kgOTGz6k-] found
Submit result: UYOcL.tSINfyL16PIk1kgOTGz6k- has been confirmed
Track | CTDB Status
  1   | (909/919) Accurately ripped, or (3/919) differs in 172 samples @01:08:05
  2   | (915/919) Accurately ripped
  3   | (911/919) Accurately ripped
  4   | (915/919) Accurately ripped
  5   | (908/919) Accurately ripped, or (3/919) differs in 180 samples @07:06:21
  6   | (915/919) Accurately ripped
  7   | (914/919) Accurately ripped
  8   | (914/919) Accurately ripped
  9   | (912/919) Accurately ripped
 10   | (914/919) Accurately ripped
 11   | (915/919) Accurately ripped
 12   | (907/919) Accurately ripped


==== Log checksum 21004D5D4DE826166CAFB8396D905B0DCED1B0946D899788BE4B7E98511AFAF5 ====



Create a new paste based on this one


Comments: