[ create a new paste ] login | about

Link: http://codepad.org/6UC2ydBN    [ raw code | fork ]

Plain Text, pasted on Aug 3:
foobar2000 1.3.17 / Dynamic Range Meter 1.1.1
log date: 2018-08-03 14:38:06

--------------------------------------------------------------------------------
Analyzed: Art Of Noise / Daft
--------------------------------------------------------------------------------

DR         Peak         RMS     Duration Track
--------------------------------------------------------------------------------
DR13      -1.91 dB   -19.70 dB      7:02 01-Love
DR11      -1.54 dB   -18.57 dB      4:46 02-A Time For Fear (Who's Afraid)
DR13      -0.27 dB   -17.03 dB      8:33 03-Beat Box (Diversion 1)
DR10      -3.74 dB   -19.12 dB      2:05 04-The Army Now
DR14      -0.32 dB   -19.05 dB      1:45 05-Donna
DR12      -1.43 dB   -21.51 dB      2:12 06-Memento
DR11      -4.93 dB   -22.06 dB      2:42 07-How To Kill
DR11      -2.58 dB   -17.88 dB      1:46 08-Realisation
DR12      -0.01 dB   -15.70 dB      4:23 09-Who's Afraid (Of The Art Of Noise)
DR13      -1.07 dB   -18.30 dB     10:19 10-Moments In Love
DR16      -8.95 dB   -27.42 dB      0:06 11-Bright Noise
DR12      -0.45 dB   -15.65 dB      1:23 12-Flesh In Armour
DR12      -3.61 dB   -21.81 dB      1:21 13-Comes And Goes
DR12      -4.36 dB   -20.92 dB      2:34 14-Snapshot
DR12      -0.24 dB   -15.39 dB      5:39 15-Close (To The Edit)
DR13      -1.15 dB   -20.19 dB      4:46 16-(Three Fingers Of) Love
--------------------------------------------------------------------------------

Number of tracks:  16
Official DR value: DR12

Samplerate:        88200 Hz
Channels:          6
Bits per sample:   24
Bitrate:           7193 kbps
Codec:             FLAC
================================================================================




Create a new paste based on this one


Comments: