[ create a new paste ] login | about

Link: http://codepad.org/6XHBS42D    [ raw code | fork ]

Plain Text, pasted on May 8:
foobar2000 1.4.1 / Dynamic Range Meter 1.1.1
log date: 2019-05-07 18:51:20

--------------------------------------------------------------------------------
Analyzed: MILES DAVIS / LIVE AT THE OLYMPIA
--------------------------------------------------------------------------------

DR         Peak         RMS     Duration Track
--------------------------------------------------------------------------------
DR11      -7.92 dB   -23.38 dB     17:06 01-ALL OF YOU
DR11      -8.52 dB   -23.56 dB     13:28 02-SO WHAT
DR11      -7.61 dB   -22.33 dB      5:38 03-ROUND MIDNIGHT
DR12      -7.79 dB   -24.33 dB      9:25 04-WALKIN'
DR12      -7.65 dB   -26.80 dB      7:26 05-FRAN DANCE
DR12      -7.62 dB   -24.03 dB      8:47 06-FOUR
DR11      -7.91 dB   -23.06 dB      5:54 07-TWO BASS HIT
--------------------------------------------------------------------------------

Number of tracks:  7
Official DR value: DR12

Samplerate:        2822400 Hz / PCM Samplerate: 176400 Hz
Channels:          5
Bits per sample:   1
Bitrate:           14112 kbps
Codec:             DST64
================================================================================

--------------------------------------------------------------------------------
Analyzed: MILES DAVIS / LIVE AT THE OLYMPIA
--------------------------------------------------------------------------------

DR         Peak         RMS     Duration Track
--------------------------------------------------------------------------------
DR10      -7.92 dB   -20.23 dB     17:06 01-ALL OF YOU
DR10      -8.43 dB   -20.40 dB     13:28 02-SO WHAT
DR9       -7.67 dB   -19.20 dB      5:38 03-ROUND MIDNIGHT
DR11      -7.77 dB   -21.23 dB      9:25 04-WALKIN'
DR12      -7.46 dB   -23.64 dB      7:26 05-FRAN DANCE
DR11      -7.56 dB   -20.91 dB      8:47 06-FOUR
DR10      -7.93 dB   -19.95 dB      5:54 07-TWO BASS HIT
--------------------------------------------------------------------------------

Number of tracks:  7
Official DR value: DR10

Samplerate:        2822400 Hz / PCM Samplerate: 176400 Hz
Channels:          2
Bits per sample:   1
Bitrate:           5645 kbps
Codec:             DST64
================================================================================




Create a new paste based on this one


Comments: