[ create a new paste ] login | about

Link: http://codepad.org/6XZPyvm2    [ raw code | fork ]

Plain Text, pasted on Nov 26:
foobar2000 1.3.17 / Dynamic Range Meter 1.1.1
log date: 2018-11-25 13:29:48

--------------------------------------------------------------------------------
Analyzed: The Jimi Hendrix Experience / Electric Ladyland (2018 Remaster)
--------------------------------------------------------------------------------

DR         Peak         RMS     Duration Track
--------------------------------------------------------------------------------
DR12      -0.10 dB   -18.79 dB      1:23 01-...And The Gods Made Love
DR11      -0.10 dB   -14.47 dB      2:10 02-Have You Ever Been (To Electric Ladyland)
DR13      -0.10 dB   -17.11 dB      2:21 03-Crosstown Traffic
DR13      -0.10 dB   -17.37 dB     15:00 04-Voodoo Chile
DR12      -0.10 dB   -15.34 dB      2:52 05-Little Miss Strange
DR13      -0.10 dB   -14.96 dB      3:28 06-Long Hot Summer Night
DR13      -0.10 dB   -15.45 dB      4:09 07-Come On (Let The Good Times Roll)
DR12      -0.10 dB   -14.44 dB      3:43 08-Gypsy Eyes
DR10      -0.09 dB   -13.62 dB      3:39 09-Burning Of The Midnight Lamp
DR14      -0.10 dB   -17.76 dB      3:44 10-Rainy Day, Dream Away
DR14      -0.10 dB   -17.78 dB     13:39 11-1983... (A Merman I Should Turn To Be)
DR12      -8.01 dB   -28.87 dB      1:01 12-Moon, Turn The Tides...Gently Gently Away
DR13      -0.10 dB   -15.14 dB      4:26 13-Still Raining, Still Dreaming
DR13      -0.10 dB   -16.54 dB      4:33 14-House Burning Down
DR15      -0.10 dB   -16.18 dB      4:00 15-All Along The Watchtower
DR12      -0.10 dB   -14.80 dB      5:13 16-Voodoo Child (Slight Return)
--------------------------------------------------------------------------------

Number of tracks:  16
Official DR value: DR13

Samplerate:        96000 Hz
Channels:          6
Bits per sample:   24
Bitrate:           9261 kbps
Codec:             FLAC
================================================================================




Create a new paste based on this one


Comments: