[ create a new paste ] login | about

Link: http://codepad.org/6Y519KEO    [ raw code | fork ]

Plain Text, pasted on Dec 14:
Exact Audio Copy V0.99 prebeta 5 from 4. May 2009

EAC extraction logfile from 24. June 2015, 18:05

ELVIS PRESLEY / The Complete 1954-1962 USA Singles (CD1)

Used drive  : ATAPI   iHAS122   C   Adapter: 1  ID: 1

Read mode               : Secure
Utilize accurate stream : Yes
Defeat audio cache      : Yes
Make use of C2 pointers : No

Read offset correction                      : 6
Overread into Lead-In and Lead-Out          : No
Fill up missing offset samples with silence : Yes
Delete leading and trailing silent blocks   : No
Null samples used in CRC calculations       : Yes
Used interface                              : Native Win32 interface for Win NT & 2000

Used output format : Internal WAV Routines
Sample format      : 44.100 Hz; 16 Bit; Stereo


TOC of the extracted CD

     Track |   Start  |  Length  | Start sector | End sector 
    ---------------------------------------------------------
        1  |  0:00.00 |  1:58.25 |         0    |     8874   
        2  |  1:58.25 |  2:05.11 |      8875    |    18260   
        3  |  4:03.36 |  2:14.55 |     18261    |    28365   
        4  |  6:18.16 |  2:30.46 |     28366    |    39661   
        5  |  8:48.62 |  2:42.18 |     39662    |    51829   
        6  | 11:31.05 |  2:14.07 |     51830    |    61886   
        7  | 13:45.12 |  2:18.25 |     61887    |    72261   
        8  | 16:03.37 |  2:39.35 |     72262    |    84221   
        9  | 18:42.72 |  2:27.20 |     84222    |    95266   
       10  | 21:10.17 |  2:31.24 |     95267    |   106615   
       11  | 23:41.41 |  2:09.16 |    106616    |   116306   
       12  | 25:50.57 |  2:31.74 |    116307    |   127705   
       13  | 28:22.56 |  2:40.36 |    127706    |   139741   
       14  | 31:03.17 |  2:11.43 |    139742    |   149609   
       15  | 33:14.60 |  2:17.25 |    149610    |   159909   
       16  | 35:32.10 |  2:05.10 |    159910    |   169294   
       17  | 37:37.20 |  2:01.10 |    169295    |   178379   
       18  | 39:38.30 |  1:59.48 |    178380    |   187352   
       19  | 41:38.03 |  2:25.51 |    187353    |   198278   
       20  | 44:03.54 |  2:24.74 |    198279    |   209152   
       21  | 46:28.53 |  2:24.56 |    209153    |   220008   
       22  | 48:53.34 |  2:01.52 |    220009    |   229135   
       23  | 50:55.11 |  2:34.23 |    229136    |   240708   
       24  | 53:29.34 |  2:43.06 |    240709    |   252939   
       25  | 56:12.40 |  2:39.16 |    252940    |   264880   


Range status and errors

Selected range

     Filename C:\Users\London\Desktop\ELVIS PRESLEY - The Complete 1954-1962 USA Singles (CD1).wav

     Peak level 100.0 %
     Range quality 100.0 %
     Test CRC 4D8509DD
     Copy CRC 4D8509DD
     Copy OK

No errors occurred

 
AccurateRip summary
 
Track  1  not present in database
Track  2  not present in database
Track  3  not present in database
Track  4  not present in database
Track  5  not present in database
Track  6  not present in database
Track  7  not present in database
Track  8  not present in database
Track  9  not present in database
Track 10  not present in database
Track 11  not present in database
Track 12  not present in database
Track 13  not present in database
Track 14  not present in database
Track 15  not present in database
Track 16  not present in database
Track 17  not present in database
Track 18  not present in database
Track 19  not present in database
Track 20  not present in database
Track 21  not present in database
Track 22  not present in database
Track 23  not present in database
Track 24  not present in database
Track 25  not present in database
 
None of the tracks are present in the AccurateRip database

End of status report



Create a new paste based on this one


Comments: