[ create a new paste ] login | about

Link: http://codepad.org/6bxblFCY    [ raw code | fork ]

Plain Text, pasted on Feb 29:
Exact Audio Copy V1.0 beta 3 from 29. August 2011

EAC extraction logfile from 8. October 2013, 8:25

The Shadows / The Shadows The Early Years. Their Complete Studio Recordings 1959-1966 CD4

Used drive  : ATAPI   iHAS124   B   Adapter: 2  ID: 0

Read mode               : Secure
Utilize accurate stream : Yes
Defeat audio cache      : Yes
Make use of C2 pointers : No

Read offset correction                      : 6
Overread into Lead-In and Lead-Out          : No
Fill up missing offset samples with silence : Yes
Delete leading and trailing silent blocks   : No
Null samples used in CRC calculations       : Yes
Used interface                              : Native Win32 interface for Win NT & 2000

Used output format              : User Defined Encoder
Selected bitrate                : 1024 kBit/s
Quality                         : High
Add ID3 tag                     : No
Command line compressor         : C:\Program Files (x86)\Exact Audio Copy\FLAC\FLAC.EXE
Additional command line options : -8 -V -T "ARTIST=%artist%" -T "TITLE=%title%" -T "ALBUM=%albumtitle%" -T "DATE=%year%" -T "TRACKNUMBER=%tracknr%" -T "GENRE=%genre%" -T "PERFORMER=%albuminterpret%" -T "COMPOSER=%composer%" %haslyrics%--tag-from-file=LYRICS="%lyricsfile%"%haslyrics% -T "ALBUMARTIST=%albumartist%" -T "DISCNUMBER=%cdnumber%" -T "TOTALDISCS=%totalcds%" -T "TOTALTRACKS=%numtracks%" -T "COMMENT=%comment%" %source% -o %dest%


TOC of the extracted CD

     Track |   Start  |  Length  | Start sector | End sector 
    ---------------------------------------------------------
        1  |  0:00.00 |  2:36.41 |         0    |    11740   
        2  |  2:36.41 |  2:10.20 |     11741    |    21510   
        3  |  4:46.61 |  2:47.48 |     21511    |    34083   
        4  |  7:34.34 |  2:25.26 |     34084    |    44984   
        5  |  9:59.60 |  2:06.07 |     44985    |    54441   
        6  | 12:05.67 |  2:15.23 |     54442    |    64589   
        7  | 14:21.15 |  1:59.36 |     64590    |    73550   
        8  | 16:20.51 |  1:57.20 |     73551    |    82345   
        9  | 18:17.71 |  2:42.11 |     82346    |    94506   
       10  | 21:00.07 |  2:43.32 |     94507    |   106763   
       11  | 23:43.39 |  3:15.08 |    106764    |   121396   
       12  | 26:58.47 |  2:08.64 |    121397    |   131060   
       13  | 29:07.36 |  2:25.68 |    131061    |   142003   
       14  | 31:33.29 |  2:33.28 |    142004    |   153506   
       15  | 34:06.57 |  2:25.38 |    153507    |   164419   
       16  | 36:32.20 |  2:32.15 |    164420    |   175834   
       17  | 39:04.35 |  2:40.28 |    175835    |   187862   
       18  | 41:44.63 |  2:23.46 |    187863    |   198633   
       19  | 44:08.34 |  2:09.54 |    198634    |   208362   
       20  | 46:18.13 |  2:30.15 |    208363    |   219627   
       21  | 48:48.28 |  3:18.43 |    219628    |   234520   
       22  | 52:06.71 |  3:08.18 |    234521    |   248638   
       23  | 55:15.14 |  2:41.23 |    248639    |   260736   
       24  | 57:56.37 |  2:18.07 |    260737    |   271093   
       25  | 60:14.44 |  2:21.52 |    271094    |   281720   
       26  | 62:36.21 |  2:42.24 |    281721    |   293894   
       27  | 65:18.45 |  2:48.10 |    293895    |   306504   
       28  | 68:06.55 |  2:58.14 |    306505    |   319868   
       29  | 71:04.69 |  2:03.56 |    319869    |   329149   
       30  | 73:08.50 |  2:58.73 |    329150    |   342572   
       31  | 76:07.48 |  2:22.51 |    342573    |   353273   


Range status and errors

Selected range

     Filename G:\CD\The Shadows - The Shadows The Early Years CD4.wav

     Peak level 98.8 %
     Extraction speed 6.8 X
     Range quality 100.0 %
     Test CRC 455590F5
     Copy CRC 455590F5
     Copy OK

No errors occurred

 
AccurateRip summary
 
Track  1  not present in database
Track  2  not present in database
Track  3  not present in database
Track  4  not present in database
Track  5  not present in database
Track  6  not present in database
Track  7  not present in database
Track  8  not present in database
Track  9  not present in database
Track 10  not present in database
Track 11  not present in database
Track 12  not present in database
Track 13  not present in database
Track 14  not present in database
Track 15  not present in database
Track 16  not present in database
Track 17  not present in database
Track 18  not present in database
Track 19  not present in database
Track 20  not present in database
Track 21  not present in database
Track 22  not present in database
Track 23  not present in database
Track 24  not present in database
Track 25  not present in database
Track 26  not present in database
Track 27  not present in database
Track 28  not present in database
Track 29  not present in database
Track 30  not present in database
Track 31  not present in database
 
None of the tracks are present in the AccurateRip database

End of status report

==== Log checksum 0F9441AF036BDD74A3A4CB3576FC99C15EE58DB8CA66AC5D5F02419008077C7B ====



Create a new paste based on this one


Comments: