[ create a new paste ] login | about

Link: http://codepad.org/6iiPDfif    [ raw code | fork ]

Plain Text, pasted on Nov 4:
foobar2000 1.3.17 / Dynamic Range Meter 1.1.1
log date: 2018-11-03 16:13:48

--------------------------------------------------------------------------------
Analyzed: Eagles / Legacy
--------------------------------------------------------------------------------

DR         Peak         RMS     Duration Track
--------------------------------------------------------------------------------
DR12       0.00 dB   -12.79 dB      3:41 50-The Long Run (Remastered)
DR13       0.00 dB   -14.71 dB      4:55 51-I Can't Tell You Why (Remastered)
DR10       0.00 dB   -12.39 dB      3:45 52-In The City (Remastered)
DR11       0.00 dB   -13.39 dB      2:44 53-The Disco Strangler (Remastered)
DR12       0.00 dB   -14.31 dB      6:28 54-King Of Hollywood (Remastered)
DR10       0.00 dB   -12.04 dB      4:26 55-Heartache Tonight (Remastered)
DR12       0.00 dB   -13.58 dB      4:55 56-Those Shoes (Remastered)
DR12       0.00 dB   -13.74 dB      3:44 57-Teenage Jail (Remastered)
DR11       0.00 dB   -11.94 dB      2:19 58-The Greeks Don't Want No Freaks (Remastered)
DR12       0.00 dB   -14.33 dB      5:33 59-The Sad Cafe (Remastered)
--------------------------------------------------------------------------------

Number of tracks:  10
Official DR value: DR11

Samplerate:        96000 Hz
Channels:          2
Bits per sample:   24
Bitrate:           2828 kbps
Codec:             FLAC
================================================================================




Create a new paste based on this one


Comments: