[ create a new paste ] login | about

Link: http://codepad.org/6kM12S3j    [ raw code | fork ]

Plain Text, pasted on Mar 21:
foobar2000 1.2.9 / Dynamic Range Meter 1.1.1
log date: 2014-08-14 23:32:59

--------------------------------------------------------------------------------
Analyzed: Tears For Fears / Songs From The Big Chair (2014 SHM-SACD)
--------------------------------------------------------------------------------

DR         Peak         RMS     Duration Track
--------------------------------------------------------------------------------
DR11      -1.43 dB   -14.70 dB      6:34 01-Shout
DR12      -0.01 dB   -15.07 dB      6:32 02-The Working Hour
DR11      -1.70 dB   -14.97 dB      4:11 03-Everybody Wants To Rule The World
DR14      -0.69 dB   -16.54 dB      5:09 04-Mothers Talk
DR12      -4.12 dB   -19.88 dB      4:55 05-I Believe
DR11      -2.31 dB   -15.58 dB      2:38 06-Broken
DR12      -0.04 dB   -14.08 dB      5:02 07-Head Over Heels / Broken (Live)
DR11      -2.40 dB   -17.24 dB      6:53 08-Listen
--------------------------------------------------------------------------------

Number of tracks:  8
Official DR value: DR12

Samplerate:        88200 Hz
Channels:          2
Bits per sample:   24
Bitrate:           2598 kbps
Codec:             FLAC
================================================================================




Create a new paste based on this one


Comments: