[ create a new paste ] login | about

Link: http://codepad.org/6kSaDaWc    [ raw code | fork ]

Plain Text, pasted on Sep 11:
CD 1

[CUETools log; Date: 9/10/2019 8:41:59 PM; Version: 2.1.5]
[CTDB TOCID: Rd0v_EFIfeTmLk4RC3IW_bZQm_g-] found.
Track | CTDB Status
  1   | (81/83) Accurately ripped
  2   | (82/83) Accurately ripped
  3   | (82/83) Accurately ripped
  4   | (82/83) Accurately ripped
  5   | (81/83) Accurately ripped
  6   | (82/83) Accurately ripped
  7   | (81/83) Accurately ripped
  8   | (81/83) Accurately ripped
  9   | (82/83) Accurately ripped
[AccurateRip ID: 000d0eca-005ea5ac-7608f009] found.
Track   [  CRC   |   V2   ] Status
 01     [94d3baca|c292733c] (00+30/30) Accurately ripped
 02     [962e823c|8067a32d] (00+30/30) Accurately ripped
 03     [5fda9eb5|10f2bc71] (00+30/30) Accurately ripped
 04     [ca911b6b|34543580] (00+30/30) Accurately ripped
 05     [1db5a78c|d611ef53] (00+30/30) Accurately ripped
 06     [9bfc8db1|9006d5c5] (00+30/30) Accurately ripped
 07     [c435a784|dc65f520] (00+29/29) Accurately ripped
 08     [63635e07|02f242e4] (00+29/29) Accurately ripped
 09     [2a810763|29881ee7] (00+30/30) Accurately ripped

Track Peak [ CRC32  ] [W/O NULL] [  LOG   ]
 --  100.0 [36BC5951] [18FDCADC]   CRC32   
 01  100.0 [48AFF1AD] [E8E885C5]           
 02   96.6 [8FFF63E5] [54045DB0]           
 03  100.0 [AB2E0A61] [ABC0CAD0]           
 04  100.0 [DE43EA92] [232536CA]           
 05  100.0 [B0A389AF] [759BA706]           
 06  100.0 [BAF375B8] [1ACBA3E4]           
 07  100.0 [EAAE413C] [47302DDB]           
 08  100.0 [F868A1BA] [FCE087BE]           
 09  100.0 [19C9EBDC] [C2A070E5]           

================================================================================================================

CD 2

[CUETools log; Date: 9/10/2019 8:42:09 PM; Version: 2.1.5]
[CTDB TOCID: eZM.eM.3TDtfkheAV0SDR3IM9Yo-] found.
Track | CTDB Status
  1   | (74/75) Accurately ripped
  2   | (72/75) Accurately ripped
  3   | (74/75) Accurately ripped
  4   | (74/75) Accurately ripped
  5   | (74/75) Accurately ripped
  6   | (74/75) Accurately ripped
  7   | (73/75) Accurately ripped
  8   | (74/75) Accurately ripped
  9   | (74/75) Accurately ripped
 10   | (74/75) Accurately ripped
 11   | (74/75) Accurately ripped
 12   | (74/75) Accurately ripped
 13   | (72/75) Accurately ripped
[AccurateRip ID: 0021cc8e-0151652e-b510720d] found.
Track   [  CRC   |   V2   ] Status
 01     [60a96521|31faea7d] (00+31/31) Accurately ripped
 02     [7dae23e5|bb396882] (00+29/29) Accurately ripped
 03     [4c6ebd85|984d45b6] (00+31/31) Accurately ripped
 04     [d361e572|34af5d8a] (00+31/31) Accurately ripped
 05     [c8c7fd17|c7075cd6] (00+31/31) Accurately ripped
 06     [415b4ca3|cae8f426] (00+30/30) Accurately ripped
 07     [2749d5fb|a4199fb6] (00+30/30) Accurately ripped
 08     [3e870a27|872b8e9c] (00+30/30) Accurately ripped
 09     [b4305809|aa92ae6d] (00+30/30) Accurately ripped
 10     [b0224632|4457a245] (00+30/30) Accurately ripped
 11     [46f0ecca|c6629b39] (00+30/30) Accurately ripped
 12     [cf884246|6e5ffb57] (00+30/30) Accurately ripped
 13     [d336896f|613fa826] (00+29/29) Accurately ripped

Track Peak [ CRC32  ] [W/O NULL] [  LOG   ]
 --  100.0 [65F69F23] [8F6C5297]   CRC32   
 01  100.0 [CD7C1569] [89AAF509]           
 02  100.0 [F03FE231] [0552B4BA]           
 03  100.0 [7458C457] [8185D9F1]           
 04  100.0 [0E1521F0] [B1439693]           
 05  100.0 [D3DDCEEA] [2AE2EE9F]           
 06  100.0 [70EA17F7] [69D96C2E]           
 07  100.0 [5F332B21] [48CB2FF8]           
 08  100.0 [593C1C4C] [EA785B9C]           
 09   99.4 [AEBF29CF] [091C5AED]           
 10  100.0 [1A22B625] [94B7F385]           
 11  100.0 [D993D18A] [086630D5]           
 12  100.0 [5B7470D3] [ECAE8308]           
 13  100.0 [6B0A35AF] [0C1CC18F]           



Create a new paste based on this one


Comments: