[ create a new paste ] login | about

Link: http://codepad.org/6mPgvLIt    [ raw code | fork ]

Plain Text, pasted on Oct 4:
foobar2000 1.4.6 / Dynamic Range Meter 1.1.1
log date: 2019-10-02 14:42:04

--------------------------------------------------------------------------------
Analyzed: The Beatles / Abbey Road (2019 Mix)
--------------------------------------------------------------------------------

DR         Peak         RMS     Duration Track
--------------------------------------------------------------------------------
DR10      -0.33 dB   -12.63 dB      4:20 01-Come Together
DR10      -0.19 dB   -13.31 dB      3:02 02-Something
DR12      -0.18 dB   -14.79 dB      3:28 03-Maxwell's Silver Hammer
DR10      -0.19 dB   -12.15 dB      3:27 04-Oh! Darling
DR11      -0.24 dB   -12.47 dB      2:51 05-Octopus's Garden
DR9       -0.33 dB   -11.16 dB      7:47 06-I Want You (She's So Heavy)
DR12      -0.18 dB   -13.83 dB      3:06 07-Here Comes The Sun
DR10      -1.91 dB   -15.27 dB      2:46 08-Because
DR12      -0.18 dB   -16.63 dB      4:03 09-You Never Give Me Your Money
DR10      -2.24 dB   -14.19 dB      2:26 10-Sun King
DR11      -0.18 dB   -12.66 dB      1:06 11-Mean Mr. Mustard
DR11      -0.18 dB   -12.18 dB      1:13 12-Polythene Pam
DR11      -0.18 dB   -11.76 dB      1:59 13-She Came In Through The Bathroom Window
DR11      -0.36 dB   -15.56 dB      1:32 14-Golden Slumbers
DR11      -0.22 dB   -12.39 dB      1:36 15-Carry That Weight
DR11      -0.18 dB   -14.05 dB      2:22 16-The End
DR9       -0.95 dB   -20.31 dB      0:25 17-Her Majesty
--------------------------------------------------------------------------------

Number of tracks:  17
Official DR value: DR11

Samplerate:        96000 Hz
Channels:          2
Bits per sample:   24
Bitrate:           2436 kbps
Codec:             FLAC
================================================================================




Create a new paste based on this one


Comments: