[ create a new paste ] login | about

Link: http://codepad.org/6nL8f5y5    [ raw code | fork ]

Plain Text, pasted on Jul 2:
Exact Audio Copy V1.1 from 23. June 2015

EAC extraction logfile from 21. June 2016, 21:19

Jethro Tull / Aqualung CD2

Used drive  : PLEXTOR BD-R  PX-B950SA   Adapter: 1  ID: 1

Read mode               : Secure
Utilize accurate stream : Yes
Defeat audio cache      : Yes
Make use of C2 pointers : No

Read offset correction                      : 6
Overread into Lead-In and Lead-Out          : No
Fill up missing offset samples with silence : Yes
Delete leading and trailing silent blocks   : No
Null samples used in CRC calculations       : Yes
Used interface                              : Native Win32 interface for Win NT & 2000

Used output format : Internal WAV Routines
Sample format      : 44.100 Hz; 16 Bit; Stereo


TOC of the extracted CD

     Track |   Start  |  Length  | Start sector | End sector 
    ---------------------------------------------------------
        1  |  0:00.00 |  2:49.20 |         0    |    12694   
        2  |  2:49.20 |  1:37.65 |     12695    |    20034   
        3  |  4:27.10 |  9:42.51 |     20035    |    63735   
        4  | 14:09.61 |  1:51.39 |     63736    |    72099   
        5  | 16:01.25 |  5:21.59 |     72100    |    96233   
        6  | 21:23.09 |  0:54.66 |     96234    |   100349   
        7  | 22:18.00 |  1:12.44 |    100350    |   105793   
        8  | 23:30.44 |  7:07.67 |    105794    |   137885   
        9  | 30:38.36 |  3:19.68 |    137886    |   152878   
       10  | 33:58.29 |  3:12.46 |    152879    |   167324   
       11  | 37:11.00 |  3:20.59 |    167325    |   182383   
       12  | 40:31.59 |  3:13.08 |    182384    |   196866   
       13  | 43:44.67 |  3:01.37 |    196867    |   210478   
       14  | 46:46.29 |  2:09.11 |    210479    |   220164   
       15  | 48:55.40 |  1:37.51 |    220165    |   227490   
       16  | 50:33.16 |  0:52.45 |    227491    |   231435   


Range status and errors

Selected range

     Filename C:\Jethro Tull\1971 Aqualung (2CD + 2DVD Box Set Chrysalis Records 2016)\CD2\Jethro Tull - Aqualung CD2.wav

     Peak level 99.1 %
     Extraction speed 7.2 X
     Range quality 100.0 %
     Test CRC 618EBB95
     Copy CRC 618EBB95
     Copy OK

No errors occurred

 
AccurateRip summary
 
Track  1  accurately ripped (confidence 14)  [111623EC]  (AR v2)
Track  2  accurately ripped (confidence 14)  [6BB3A397]  (AR v2)
Track  3  accurately ripped (confidence 14)  [A734C15E]  (AR v2)
Track  4  accurately ripped (confidence 14)  [2CEDF407]  (AR v2)
Track  5  accurately ripped (confidence 14)  [297BCF8D]  (AR v2)
Track  6  accurately ripped (confidence 14)  [8356FFC6]  (AR v2)
Track  7  accurately ripped (confidence 14)  [7A9004BF]  (AR v2)
Track  8  accurately ripped (confidence 14)  [7708894F]  (AR v2)
Track  9  accurately ripped (confidence 14)  [DAE2E2A6]  (AR v2)
Track 10  accurately ripped (confidence 14)  [906281FD]  (AR v2)
Track 11  accurately ripped (confidence 14)  [D73A2AE2]  (AR v2)
Track 12  accurately ripped (confidence 14)  [C33D121C]  (AR v2)
Track 13  accurately ripped (confidence 14)  [DD7B257C]  (AR v2)
Track 14  accurately ripped (confidence 14)  [11820250]  (AR v2)
Track 15  accurately ripped (confidence 14)  [C782CD6E]  (AR v2)
Track 16  accurately ripped (confidence 14)  [78062898]  (AR v2)
 
All tracks accurately ripped

End of status report

---- CUETools DB Plugin V2.1.6

[CTDB TOCID: G2xLXYH3gBIOdMCsTpjUTY5SQwY-] found
Submit result: G2xLXYH3gBIOdMCsTpjUTY5SQwY- has been confirmed
Track | CTDB Status
  1   | (55/55) Accurately ripped
  2   | (55/55) Accurately ripped
  3   | (55/55) Accurately ripped
  4   | (55/55) Accurately ripped
  5   | (55/55) Accurately ripped
  6   | (55/55) Accurately ripped
  7   | (55/55) Accurately ripped
  8   | (55/55) Accurately ripped
  9   | (55/55) Accurately ripped
 10   | (55/55) Accurately ripped
 11   | (55/55) Accurately ripped
 12   | (55/55) Accurately ripped
 13   | (55/55) Accurately ripped
 14   | (55/55) Accurately ripped
 15   | (55/55) Accurately ripped
 16   | (55/55) Accurately ripped


==== Log checksum CD9F66601B944CACD5E1779DCF61E39F4056B5D1AE224C724E7005D24E283920 ====



Create a new paste based on this one


Comments: