[ create a new paste ] login | about

Link: http://codepad.org/6oE6OyWY    [ raw code | fork ]

Plain Text, pasted on Jun 23:
[CUETools log; Date: 8/30/2016 2:37:04 PM; Version: 2.1.5]
[CTDB TOCID: 9ncyB1b0uAljjN1ogyDuH2Ry964-] found.
Track | CTDB Status
  1   | (114/115) Accurately ripped
  2   | (113/115) Accurately ripped
  3   | (114/115) Accurately ripped
  4   | (113/115) Accurately ripped
  5   | (114/115) Accurately ripped
  6   | (114/115) Accurately ripped
  7   | (113/115) Accurately ripped
  8   | (112/115) Accurately ripped
  9   | (114/115) Accurately ripped
[AccurateRip ID: 00135e14-008dcf9a-8b0cf409] found.
Track   [  CRC   |   V2   ] Status
 01     [ace67753|cee3d8fc] (002+102/104) Accurately ripped
 02     [bf3d71a9|4f3efca5] (002+102/104) Accurately ripped
 03     [bb01f4a7|ae15f086] (002+101/103) Accurately ripped
 04     [fe53fb6e|530ec7f1] (002+102/104) Accurately ripped
 05     [d6a5a5e3|e5031f90] (002+103/105) Accurately ripped
 06     [e4faf8f3|efa47204] (002+103/105) Accurately ripped
 07     [d25f8e51|47546fdd] (002+102/104) Accurately ripped
 08     [9b8c4179|c81a45ce] (002+104/106) Accurately ripped
 09     [b064ec05|05004812] (002+104/106) Accurately ripped
Offsetted by 6:
 01     [a3d365d1] (000/104) No match (V2 was not tested)
 02     [65bcebb1] (000/104) No match (V2 was not tested)
 03     [16bf3468] (000/103) No match (V2 was not tested)
 04     [9c5b0e11] (000/104) No match (V2 was not tested)
 05     [f7139b28] (000/105) No match (V2 was not tested)
 06     [e2511010] (000/105) No match (V2 was not tested)
 07     [0f6d86e5] (000/104) No match (V2 was not tested)
 08     [4e365bc7] (000/106) No match (V2 was not tested)
 09     [0ade967b] (000/106) No match (V2 was not tested)

Track Peak [ CRC32  ] [W/O NULL] [  LOG   ]
 --   99.3 [AC281905] [CE7F3332]   CRC32   
 01   98.8 [A8C6A3AE] [01B832D6]           
 02   87.4 [8DD17E4E] [93233768]           
 03   64.8 [F7929664] [029FB4F0]           
 04   68.0 [2C4E50AD] [69E5E2EB]           
 05   53.7 [2ADD2627] [6BA33047]           
 06   98.8 [9467741A] [7EA870A6]           
 07   99.3 [5A0FB62D] [76FAA8C9]           
 08   89.3 [803BA3C5] [B5285FF0]           
 09   84.3 [70C191EF] [58A67B79]           



Create a new paste based on this one


Comments: