[ create a new paste ] login | about

Link: http://codepad.org/6oH0lDQX    [ raw code | fork ]

Plain Text, pasted on Mar 30:
Exact Audio Copy V1.3 from 2. September 2016

EAC extraction logfile from 21. March 2019, 19:33

Whitesnake / Slide It In CD6 Ruff Mixes, Demos etc

Used drive  : PLEXTOR BD-R  PX-B950SA   Adapter: 1  ID: 1

Read mode               : Secure
Utilize accurate stream : Yes
Defeat audio cache      : Yes
Make use of C2 pointers : No

Read offset correction                      : 6
Overread into Lead-In and Lead-Out          : No
Fill up missing offset samples with silence : Yes
Delete leading and trailing silent blocks   : No
Null samples used in CRC calculations       : Yes
Used interface                              : Native Win32 interface for Win NT & 2000

Used output format : Internal WAV Routines
Sample format      : 44.100 Hz; 16 Bit; Stereo


TOC of the extracted CD

     Track |   Start  |  Length  | Start sector | End sector 
    ---------------------------------------------------------
        1  |  0:00.00 |  3:26.47 |         0    |    15496   
        2  |  3:26.47 |  4:22.20 |     15497    |    35166   
        3  |  7:48.67 |  4:29.38 |     35167    |    55379   
        4  | 12:18.30 |  3:39.47 |     55380    |    71851   
        5  | 15:58.02 |  6:06.22 |     71852    |    99323   
        6  | 22:04.24 |  4:21.51 |     99324    |   118949   
        7  | 26:26.00 |  3:15.33 |    118950    |   133607   
        8  | 29:41.33 |  1:17.19 |    133608    |   139401   
        9  | 30:58.52 |  1:36.30 |    139402    |   146631   
       10  | 32:35.07 |  6:54.06 |    146632    |   177687   
       11  | 39:29.13 |  3:53.44 |    177688    |   195206   
       12  | 43:22.57 |  0:44.01 |    195207    |   198507   
       13  | 44:06.58 |  2:49.62 |    198508    |   211244   
       14  | 46:56.45 |  1:54.72 |    211245    |   219866   
       15  | 48:51.42 |  1:20.34 |    219867    |   225900   
       16  | 50:12.01 |  2:21.70 |    225901    |   236545   
       17  | 52:33.71 |  1:19.54 |    236546    |   242524   
       18  | 53:53.50 |  0:32.69 |    242525    |   244993   
       19  | 54:26.44 |  3:23.70 |    244994    |   260288   
       20  | 57:50.39 |  2:16.50 |    260289    |   270538   
       21  | 60:07.14 |  1:47.56 |    270539    |   278619   
       22  | 61:54.70 |  1:46.29 |    278620    |   286598   
       23  | 63:41.24 |  0:23.50 |    286599    |   288373   
       24  | 64:04.74 |  0:57.04 |    288374    |   292652   
       25  | 65:02.03 |  1:56.01 |    292653    |   301353   
       26  | 66:58.04 |  2:15.27 |    301354    |   311505   
       27  | 69:13.31 |  1:27.51 |    311506    |   318081   
       28  | 70:41.07 |  1:05.23 |    318082    |   322979   
       29  | 71:46.30 |  1:20.67 |    322980    |   329046   
       30  | 73:07.22 |  0:51.21 |    329047    |   332892   


Range status and errors

Selected range

     Filename C:\Whitesnake\1984 Slide It In (7-Disc Box Set Rhino Records 2019)\CD6 Early Ruff Mixes, Original Demos & Obscurities\Whitesnake - Slide It In CD6 Ruff Mixes, Demos etc.wav

     Peak level 98.8 %
     Extraction speed 8.0 X
     Range quality 100.0 %
     Test CRC 7F9C19C0
     Copy CRC 7F9C19C0
     Copy OK

No errors occurred

 
AccurateRip summary
 
Track  1  not present in database
Track  2  not present in database
Track  3  not present in database
Track  4  not present in database
Track  5  not present in database
Track  6  not present in database
Track  7  not present in database
Track  8  not present in database
Track  9  not present in database
Track 10  not present in database
Track 11  not present in database
Track 12  not present in database
Track 13  not present in database
Track 14  not present in database
Track 15  not present in database
Track 16  not present in database
Track 17  not present in database
Track 18  not present in database
Track 19  not present in database
Track 20  not present in database
Track 21  not present in database
Track 22  not present in database
Track 23  not present in database
Track 24  not present in database
Track 25  not present in database
Track 26  not present in database
Track 27  not present in database
Track 28  not present in database
Track 29  not present in database
Track 30  not present in database
 
None of the tracks are present in the AccurateRip database

End of status report

---- CUETools DB Plugin V2.1.6

[CTDB TOCID: MXOcOXTblok5meZoPtErHYWfeZI-] found
Submit result: MXOcOXTblok5meZoPtErHYWfeZI- has been confirmed
Track | CTDB Status
  1   | (5/5) Accurately ripped
  2   | (5/5) Accurately ripped
  3   | (5/5) Accurately ripped
  4   | (5/5) Accurately ripped
  5   | (5/5) Accurately ripped
  6   | (5/5) Accurately ripped
  7   | (5/5) Accurately ripped
  8   | (5/5) Accurately ripped
  9   | (5/5) Accurately ripped
 10   | (5/5) Accurately ripped
 11   | (5/5) Accurately ripped
 12   | (5/5) Accurately ripped
 13   | (5/5) Accurately ripped
 14   | (5/5) Accurately ripped
 15   | (5/5) Accurately ripped
 16   | (5/5) Accurately ripped
 17   | (5/5) Accurately ripped
 18   | (5/5) Accurately ripped
 19   | (5/5) Accurately ripped
 20   | (5/5) Accurately ripped
 21   | (5/5) Accurately ripped
 22   | (5/5) Accurately ripped
 23   | (5/5) Accurately ripped
 24   | (5/5) Accurately ripped
 25   | (5/5) Accurately ripped
 26   | (5/5) Accurately ripped
 27   | (5/5) Accurately ripped
 28   | (5/5) Accurately ripped
 29   | (5/5) Accurately ripped
 30   | (5/5) Accurately ripped


==== Log checksum 573A96F19C5233B500AA88277D9034DFD5AED06EFCD3F6301714FC587C4CC684 ====



Create a new paste based on this one


Comments: