[ create a new paste ] login | about

Link: http://codepad.org/6vX1ALy4    [ raw code | fork ]

Plain Text, pasted on Aug 5:
[CUETools log; Date: 8/5/2017 12:21:39 PM; Version: 2.1.5]
[CTDB TOCID: PtlscfYHG5prEy1LLKw8mCm8f4s-] disk not present in database.
[AccurateRip ID: 002440ed-012f34d3-a112850b] found.
Track   [  CRC   |   V2   ] Status
 01     [25e1a3a2|d7b0b237] (0+0/1) No match
 02     [92545f67|38cd50fb] (0+0/1) No match
 03     [0264af9a|eef662d7] (0+0/1) No match
 04     [01315be8|c46f52a9] (0+0/1) No match
 05     [918293a1|95773859] (0+0/1) No match
 06     [f68e4648|5f46fb17] (0+0/1) No match
 07     [d14ccb6d|dcedc5ce] (0+0/1) No match
 08     [17b9ac09|5dfc6f62] (0+0/1) No match
 09     [95577a88|2472a041] (0+0/1) No match
 10     [781146f3|94501c49] (0+0/1) No match
 11     [8d43c52a|ac9124f2] (0+0/1) No match
Offsetted by 6:
 01     [fa04e7ea] (1/1) Accurately ripped
 02     [e34f0ec9] (1/1) Accurately ripped
 03     [f86aa1be] (1/1) Accurately ripped
 04     [05919018] (1/1) Accurately ripped
 05     [60dd7b8f] (1/1) Accurately ripped
 06     [777a4470] (1/1) Accurately ripped
 07     [c26e7065] (1/1) Accurately ripped
 08     [515c20a7] (1/1) Accurately ripped
 09     [aa97e024] (1/1) Accurately ripped
 10     [9225a93d] (1/1) Accurately ripped
 11     [19d9c7ac] (1/1) Accurately ripped

Track Peak [ CRC32  ] [W/O NULL] 
 --   96.8 [34E75251] [AB7EC449]           
 01   96.8 [97753DEE] [01A8D09A]           
 02   96.3 [B95D062C] [7BCCE543]           
 03   96.3 [BE3863D6] [DB4DC6A1]           
 04   96.6 [9681DB08] [D78F6918]           
 05   96.4 [78F7035B] [1D28BCC8]           
 06   96.6 [3BB95DCF] [74084789]           
 07   96.6 [F78EC73D] [46413C4D]           
 08   96.6 [9D5BCAA8] [1BE4AA8A]           
 09   96.2 [023C0884] [BB7EF992]           
 10   96.6 [D5D42FFD] [138C9550]           
 11   96.6 [6D72F79A] [10BA2313]           



Create a new paste based on this one


Comments: