[ create a new paste ] login | about

Link: http://codepad.org/6whj3zMO    [ raw code | fork ]

Plain Text, pasted on Jul 23:
foobar2000 1.4.4 / Dynamic Range Meter 1.1.1
log date: 2019-07-23 11:14:38

--------------------------------------------------------------------------------
Analyzed: Hugo Montenegro / ?
--------------------------------------------------------------------------------

DR         Peak         RMS     Duration Track
--------------------------------------------------------------------------------
DR9       -5.34 dB   -23.76 dB      4:45 01-Caravan
DR9       -5.43 dB   -24.49 dB      3:18 02-Never can Say Goodbye
DR10      -5.46 dB   -23.11 dB      4:27 03-Noah's Arp
DR9       -5.29 dB   -23.72 dB      4:19 04-Feel Like Makin Love
DR9       -5.33 dB   -23.74 dB      3:42 05-Whats Going On
DR9       -5.38 dB   -24.41 dB      7:25 06-Nothing From Nothing Suite
DR9       -5.76 dB   -25.24 dB      3:25 07-Creeping 
DR9       -6.97 dB   -26.24 dB      3:21 08-I Heard it Through the Grapevine 
DR9       -6.62 dB   -25.49 dB      3:49 09-Aint No Mountain High Enough
DR9       -5.62 dB   -21.99 dB      2:52 10-Lost Horizon
DR10      -5.65 dB   -25.52 dB      3:01 11-A man and A Woman
DR10      -7.14 dB   -26.59 dB      2:59 12-Love Story
DR9       -7.28 dB   -24.51 dB      2:22 13-Lara's Theme  
DR9       -6.82 dB   -26.10 dB      2:22 14-The Shadow of your Smile 
DR10      -5.42 dB   -23.63 dB      3:01 15-Tara's Theme
DR10      -6.25 dB   -26.54 dB      2:25 16-Alfie
DR10      -5.60 dB   -23.85 dB      2:39 17-The Look of Love
DR10      -6.77 dB   -25.31 dB      2:21 18-Love theme from Romeo & Juliet
DR10      -7.24 dB   -25.15 dB      3:02 19-Learn to Say Goodbye
--------------------------------------------------------------------------------

Number of tracks:  19
Official DR value: DR9

Samplerate:        2822400 Hz / PCM Samplerate: 176400 Hz
Channels:          6
Bits per sample:   1
Bitrate:           16934 kbps
Codec:             DST64
================================================================================

--------------------------------------------------------------------------------
Analyzed: Hugo Montenegro / ?
--------------------------------------------------------------------------------

DR         Peak         RMS     Duration Track
--------------------------------------------------------------------------------
DR12      -7.88 dB   -22.89 dB      4:45 01-Caravan
DR13      -8.32 dB   -23.85 dB      3:18 02-Never can Say Goodbye
DR12      -7.77 dB   -21.97 dB      4:27 03-Noah's Arp
DR12      -8.27 dB   -23.11 dB      4:19 04-Feel Like Makin Love
DR13      -8.11 dB   -22.65 dB      3:42 05-Whats Going On
DR13      -7.60 dB   -23.13 dB      7:25 06-Nothing From Nothing Suite
DR13      -7.79 dB   -23.20 dB      3:25 07-Creeping 
DR13      -8.42 dB   -23.71 dB      3:21 08-I Heard it Through the Grapevine 
DR13      -7.29 dB   -23.50 dB      3:49 09-Aint No Mountain High Enough
DR12      -9.08 dB   -23.48 dB      2:52 10-Lost Horizon
DR13      -7.79 dB   -24.15 dB      3:01 11-A man and A Woman
DR12      -9.96 dB   -25.24 dB      2:59 12-Love Story
DR12      -9.81 dB   -23.83 dB      2:22 13-Lara's Theme  
DR12     -11.27 dB   -25.78 dB      2:22 14-The Shadow of your Smile 
DR11     -10.02 dB   -23.70 dB      3:01 15-Tara's Theme
DR11     -10.01 dB   -24.51 dB      2:25 16-Alfie
DR13     -10.31 dB   -25.43 dB      2:39 17-The Look of Love
DR12      -9.60 dB   -25.16 dB      2:21 18-Love theme from Romeo & Juliet
DR12     -10.23 dB   -25.52 dB      3:02 19-Learn to Say Goodbye
--------------------------------------------------------------------------------

Number of tracks:  19
Official DR value: DR12

Samplerate:        2822400 Hz / PCM Samplerate: 176400 Hz
Channels:          2
Bits per sample:   1
Bitrate:           5645 kbps
Codec:             DST64
================================================================================




Create a new paste based on this one


Comments: