[ create a new paste ] login | about

Link: http://codepad.org/70zLCUTg    [ raw code | fork ]

Plain Text, pasted on Mar 16:
Exact Audio Copy V1.0 beta 2 from 29. April 2011

EAC extraction logfile from 4. August 2013, 15:51

James Taylor / Gorilla [2013 Audio Fidelity AFZ 151]

Used drive  : HL-DT-STBD-RE  BH14NS40   Adapter: 0  ID: 2

Read mode               : Secure
Utilize accurate stream : Yes
Defeat audio cache      : Yes
Make use of C2 pointers : No

Read offset correction                      : 6
Overread into Lead-In and Lead-Out          : No
Fill up missing offset samples with silence : Yes
Delete leading and trailing silent blocks   : No
Null samples used in CRC calculations       : Yes
Used interface                              : Native Win32 interface for Win NT & 2000

Used output format              : User Defined Encoder
Selected bitrate                : 1024 kBit/s
Quality                         : High
Add ID3 tag                     : No
Command line compressor         : C:\Program Files (x86)\Exact Audio Copy\Flac\flac.exe
Additional command line options : -V -5 -T "artist=%albumartist%" -T "title=%title%" -T "album=%albumtitle%" -T "date=%year%" -T "genre=%genre%" -T "tracknumber=%tracknr%" %source%


TOC of the extracted CD

     Track |   Start  |  Length  | Start sector | End sector 
    ---------------------------------------------------------
        1  |  0:00.00 |  2:59.06 |         0    |    13430   
        2  |  2:59.06 |  3:48.29 |     13431    |    30559   
        3  |  6:47.35 |  3:36.39 |     30560    |    46798   
        4  | 10:23.74 |  2:41.19 |     46799    |    58892   
        5  | 13:05.18 |  3:12.27 |     58893    |    73319   
        6  | 16:17.45 |  4:16.17 |     73320    |    92536   
        7  | 20:33.62 |  3:21.21 |     92537    |   107632   
        8  | 23:55.08 |  3:16.05 |    107633    |   122337   
        9  | 27:11.13 |  3:26.32 |    122338    |   137819   
       10  | 30:37.45 |  5:46.34 |    137820    |   163803   
       11  | 36:24.04 |  2:46.43 |    163804    |   176296   


Range status and errors

Selected range

     Filename C:\EAC\James Taylor - (1977) Gorilla [2013 Audio Fidelity AFZ 151]\James Taylor - Gorilla [2013 Audio Fidelity AFZ 151].wav

     Peak level 97.8 %
     Extraction speed 5.4 X
     Range quality 100.0 %
     Test CRC C3783210
     Copy CRC C3783210
     Copy OK

No errors occurred

 
AccurateRip summary
 
Track  1  not present in database
Track  2  not present in database
Track  3  not present in database
Track  4  not present in database
Track  5  not present in database
Track  6  not present in database
Track  7  not present in database
Track  8  not present in database
Track  9  not present in database
Track 10  not present in database
Track 11  not present in database
 
None of the tracks are present in the AccurateRip database

End of status report

==== Log checksum F9CFF3D871A79A5CD514ACFAAB212F9BC4FBEF41C81D5B477E9BCF2571AA24B1 ====



Create a new paste based on this one


Comments: