[ create a new paste ] login | about

Link: http://codepad.org/714G8iPe    [ raw code | fork ]

Plain Text, pasted on May 23:
[CUETools log; Date: 5/23/2017 9:59:39 AM; Version: 2.1.5]
[CTDB TOCID: 8IUgGcDqzOCX0Y00XI0CKJ2HR6M-] found.
Track | CTDB Status
  1   | (5/5) Accurately ripped
  2   | (5/5) Accurately ripped
  3   | (5/5) Accurately ripped
  4   | (5/5) Accurately ripped
  5   | (5/5) Accurately ripped
  6   | (5/5) Accurately ripped
  7   | (5/5) Accurately ripped
  8   | (5/5) Accurately ripped
  9   | (5/5) Accurately ripped
 10   | (5/5) Accurately ripped
 11   | (5/5) Accurately ripped
[AccurateRip ID: 00101646-008ad94d-8c08f00b] found.
Track   [  CRC   |   V2   ] Status
 01     [72714dbd|7ae675cd] (04+08/12) Accurately ripped
 02     [5f4eee06|f802427c] (04+08/12) Accurately ripped
 03     [fed0f81b|c4d77cf8] (04+08/12) Accurately ripped
 04     [89a0e7ed|2cef572b] (04+08/12) Accurately ripped
 05     [3d8ceca6|12be7cf0] (04+08/12) Accurately ripped
 06     [49691273|666f3507] (04+08/12) Accurately ripped
 07     [8f1f9f7c|b7e7026f] (04+08/12) Accurately ripped
 08     [02527ebb|f1f7d819] (04+08/12) Accurately ripped
 09     [731cf671|d5eec6c4] (04+08/12) Accurately ripped
 10     [34bf764c|73ce585c] (04+08/12) Accurately ripped
 11     [2d201d4f|7fdb6a51] (04+08/12) Accurately ripped

Track Peak [ CRC32  ] [W/O NULL] 
 --  100.0 [FEEECE9A] [5DA1E838]           
 01   95.5 [7EF1057D] [17B84BBC]           
 02  100.0 [9A40D7FA] [63FEE2EB]           
 03   95.1 [3ACEF7F1] [91DCBD83]           
 04   91.0 [BA3997EA] [2EBD58B5]           
 05  100.0 [B024D1FC] [B533C081]           
 06   97.4 [FCA9114C] [80EF6DF9]           
 07   95.4 [794B7496] [BF35F2E5]           
 08   98.6 [49791914] [99594CA6]           
 09  100.0 [4283BFAD] [D5278B06]           
 10   96.5 [6861A2E4] [DEB3DD89]           
 11   99.6 [27306216] [CCF023B4]           



Create a new paste based on this one


Comments: