[ create a new paste ] login | about

Link: http://codepad.org/756bL44i    [ raw code | fork ]

Plain Text, pasted on Oct 17:
Exact Audio Copy V1.0 beta 3 from 29. August 2011

EAC extraction logfile from 22. January 2012, 14:43

Megadeth / Countdown To Extinction [MFSL UDCD 765]

Used drive  : PIONEER DVD-RW  DVR-112D   Adapter: 1  ID: 0

Read mode               : Secure
Utilize accurate stream : Yes
Defeat audio cache      : Yes
Make use of C2 pointers : No

Read offset correction                      : 48
Overread into Lead-In and Lead-Out          : No
Fill up missing offset samples with silence : Yes
Delete leading and trailing silent blocks   : No
Null samples used in CRC calculations       : Yes
Used interface                              : Installed external ASPI interface

Used output format              : User Defined Encoder
Selected bitrate                : 1024 kBit/s
Quality                         : High
Add ID3 tag                     : No
Command line compressor         : C:\Program Files\Exact Audio Copy\FLAC\FLAC.EXE
Additional command line options :  -V -8 -T "Date=%year%" -T "Genre=%genre%" %source%


TOC of the extracted CD

     Track |   Start  |  Length  | Start sector | End sector 
    ---------------------------------------------------------
        1  |  0:00.00 |  3:17.26 |         0    |    14800   
        2  |  3:17.26 |  4:08.21 |     14801    |    33421   
        3  |  7:25.47 |  3:39.50 |     33422    |    49896   
        4  | 11:05.22 |  4:23.37 |     49897    |    69658   
        5  | 15:28.59 |  5:27.54 |     69659    |    94237   
        6  | 20:56.38 |  3:43.09 |     94238    |   110971   
        7  | 24:39.47 |  4:19.18 |    110972    |   130414   
        8  | 28:58.65 |  4:21.11 |    130415    |   150000   
        9  | 33:20.01 |  4:41.69 |    150001    |   171144   
       10  | 38:01.70 |  4:14.59 |    171145    |   190253   
       11  | 42:16.54 |  6:14.35 |    190254    |   218338   
       12  | 48:31.14 |  3:18.69 |    218339    |   233257   
       13  | 51:50.08 |  3:56.28 |    233258    |   250985   
       14  | 55:46.36 |  5:29.64 |    250986    |   275724   
       15  | 61:16.25 |  5:29.26 |    275725    |   300425   


Range status and errors

Selected range

     Filename C:\CDRip by Deminbek\Megadeth - Countdown To Extinction [MFSL UDCD 765].wav

     Peak level 98.8 %
     Extraction speed 7.6 X
     Range quality 100.0 %
     Test CRC 93DDF2EB
     Copy CRC 93DDF2EB
     Copy OK

No errors occurred

 
AccurateRip summary
 
Track  1  accurately ripped (confidence 5)  [00254BCC]  (AR v2)
Track  2  accurately ripped (confidence 5)  [4FCDEBD3]  (AR v2)
Track  3  accurately ripped (confidence 5)  [26D7104A]  (AR v2)
Track  4  accurately ripped (confidence 5)  [F623477F]  (AR v2)
Track  5  accurately ripped (confidence 5)  [F9CB363C]  (AR v2)
Track  6  accurately ripped (confidence 5)  [5CB93275]  (AR v2)
Track  7  accurately ripped (confidence 5)  [4C6DFF8B]  (AR v2)
Track  8  accurately ripped (confidence 5)  [9C111CBE]  (AR v2)
Track  9  accurately ripped (confidence 5)  [51B5D43A]  (AR v2)
Track 10  accurately ripped (confidence 5)  [4D1F767F]  (AR v2)
Track 11  accurately ripped (confidence 5)  [A5BB8351]  (AR v2)
Track 12  accurately ripped (confidence 5)  [D988B038]  (AR v2)
Track 13  accurately ripped (confidence 5)  [C39094C1]  (AR v2)
Track 14  accurately ripped (confidence 5)  [D97764E0]  (AR v2)
Track 15  accurately ripped (confidence 5)  [A8975E15]  (AR v2)
 
All tracks accurately ripped

End of status report

==== Log checksum 6474268848144F7BF7E383F846ED8E4C2035C9F2CC914622D16356A458FF9BB1 ====



Create a new paste based on this one


Comments: