[ create a new paste ] login | about

Link: http://codepad.org/77Kfdma6    [ raw code | fork ]

Plain Text, pasted on Aug 7:
foobar2000 1.3.17 / Dynamic Range Meter 1.1.1
log date: 2018-08-06 13:09:08

--------------------------------------------------------------------------------
Analyzed: Rod Stewart / The Rod Stewart Album
--------------------------------------------------------------------------------

DR         Peak         RMS     Duration Track
--------------------------------------------------------------------------------
DR10      -0.14 dB   -13.08 dB      5:08 01-Street Fighting Man
DR11      -2.89 dB   -20.06 dB      2:33 02-Man Of Constant Sorrow
DR10      -0.13 dB   -12.83 dB      4:41 03-Blind Prayer
DR11      -0.35 dB   -16.36 dB      4:27 04-Handbags & Gladrags
DR13      -0.58 dB   -15.58 dB      3:07 05-An Old Raincoat Won't Ever Let You Down
DR10      -0.18 dB   -13.08 dB      4:48 06-I Wouldn't Ever Change A Thing
DR10      -0.27 dB   -13.84 dB      4:30 07-Cindy's Lament
DR12      -0.23 dB   -15.70 dB      3:43 08-Dirty Old Town
--------------------------------------------------------------------------------

Number of tracks:  8
Official DR value: DR11

Samplerate:        96000 Hz
Channels:          2
Bits per sample:   24
Bitrate:           3029 kbps
Codec:             FLAC
================================================================================




Create a new paste based on this one


Comments: