[ create a new paste ] login | about

Link: http://codepad.org/79IkIO4F    [ raw code | fork ]

Plain Text, pasted on Jun 16:
1
2
3
4
5
6
7
8
9
10
11
12
13
14
15
16
17
18
19
20
21
22
23
24
25
26
27
28
29
30
31
32
33
34
35
36
37
38
39
40
41
42
43
44
45
46
47
48
49
50
51
52
53
54
55
56
57
58
59
60
61
62
63
64
65
66
67
68
69
70
71
72
73
74
75
76
77
78
79
80
81
82
83
84
85
86
87
88
89
90
91
92
93
94
95
96
97
98
99
100
101
102
103
104
105
106
107
108
109
110
111
112
113
114
115
116
117
118
119
120
121
122
123
124
125
126
127
128
129
130
131
132
133
134
135
136
137
138
139
140
141
142
143
144
145
146
147
148
149
150
151
152
153
154
155
156
157
158
159
160
161
162
163
164
165
166
167
168
169
170
171
172
173
174
175
176
177
178
179
180
181
182
183
184
185
186
187
188
189
190
191
192
193
194
195
196
197
198
199
200
201
202
203
204
205
206
207
208
209
210
211
212
213
214
215
216
217
218
219
220
221
222
223
224
225
226
227
228
229
230
231
232
233
234
235
236
237
238
239
240
241
242
243
244
245
246
247
248
249
250
251
252
253
254
255
256
257
258
259
260
261
262
263
264
265
266
267
268
269
270
271
272
273
274
275
276
277
278
279
280
281
282
283
284
285
286
287
288
289
290
291
292
293
294
295
296
297
298
299
300
301
302
303
304
305
306
307
308
309
310
311
312
313
314
315
316
317
318
319
320
321
322
323
324
325
326
327
328
329
330
331
332
333
334
335
336
337
338
339
340
341
342
343
344
345
346
347
348
349
350
351
352
353
354
355
356
357
358
359
360
361
362
363
364
365
366
367
368
369
370
371
372
373
374
375
376
377
378
379
380
381
382
383
384
385
386
387
388
389
390
391
392
393
394
395
396
397
398
399
400
401
402
403
404
405
406
407
408
409
410
411
412
413
414
415
416
417
418
419
420
421
422
423
424
425
426
427
428
429
430
431
432
433
434
435
436
437
438
439
440
441
442
443
444
445
446
447
448
449
450
451
452
453
454
455
456
457
458
459
460
461
462
463
464
465
466
467
468
469
470
471
472
473
474
475
476
477
478
479
480
481
482
483
484
485
486
487
488
489
490
491
492
493
494
495
496
497
498
499
500
501
502
503
504
505
506
507
508
509
510
511
512
513
514
515
516
517
518
519
520
521
522
523
524
525
526
527
528
529
530
531
532
533
534
535
536
537
538
539
540
541
542
543
544
545
546
547
548
549
550
551
552
553
554
555
556
557
558
559
560
561
562
563
564
565
566
567
568
569
570
571
572
573
574
575
576
577
578
579
580
581
582
583
584
585
586
587
588
589
590
591
592
593
594
595
596
597
598
599
600
601
602
603
604
605
606
607
608
609
610
611
612
613
614
615
616
617
618
619
620
621
622
623
624
625
626
627
628
629
630
631
632
633
634
635
636
637
638
639
640
641
642
643
644
645
646
647
648
649
650
651
652
653
654
655
656
657
658
659
660
661
662
663
664
665
666
667
668
669
670
671
672
673
674
675
676
677
678
679
680
681
682
683
684
685
686
687
688
689
690
691
692
693
694
695
696
697
698
699
700
701
702
703
704
705
706
707
708
709
710
711
712
713
714
715
716
717
718
719
720
721
722
723
724
725
726
727
728
729
730
731
732
733
734
735
736
737
738
739
740
741
742
743
744
745
746
747
748
749
750
751
752
753
754
755
756
757
758
759
760
761
762
763
764
765
766
767
768
769
770
771
772
773
774
775
776
777
778
779
780
781
782
783
784
785
786
787
788
789
790
791
792
793
794
795
796
797
798
799
800
801
802
803
804
805
806
807
808
809
810
811
812
813
814
815
816
817
818
819
820
821
822
823
824
825
826
827
828
829
830
831
832
833
834
835
836
837
838
839
840
841
842
843
844
845
846
847
848
849
850
851
852
853
854
855
856
857
858
859
860
861
862
863
864
865
866
867
868
869
870
871
872
873
874
875
876
877
878
879
880
881
882
883
884
885
886
887
888
889
890
891
892
893
894
895
896
897
898
899
900
901
902
903
904
905
906
907
908
909
910
911
912
913
914
915
916
917
918
919
920
921
922
923
924
925
926
927
928
929
930
931
932
933
934
935
936
937
938
939
940
941
942
943
944
945
946
947
948
949
950
951
952
953
954
955
956
957
958
959
960
961
962
963
964
965
966
967
968
969
970
971
972
973
974
975
976
977
978
979
980
981
982
983
984
985
986
987
988
989
990
991
992
993
994
995
996
997
998
999
1000
1001
1002
1003
1004
1005
1006
1007
1008
1009
1010
1011
1012
1013
1014
1015
1016
1017
1018
1019
1020
1021
1022
1023
1024
1025
1026
1027
1028
1029
1030
1031
1032
1033
1034
1035
1036
1037
1038
1039
1040
1041
1042
1043
1044
1045
1046
1047
1048
1049
1050
1051
1052
1053
1054
1055
1056
1057
1058
1059
1060
1061
1062
1063
1064
1065
1066
1067
1068
1069
1070
1071
1072
1073
1074
1075
1076
1077
1078
1079
1080
1081
1082
1083
1084
1085
1086
1087
1088
1089
1090
1091
1092
1093
1094
1095
1096
1097
1098
1099
1100
1101
1102
1103
1104
1105
1106
1107
1108
1109
1110
1111
1112
1113
1114
1115
1116
1117
1118
1119
1120
1121
1122
1123
1124
1125
1126
1127
1128
1129
1130
1131
1132
1133
1134
1135
1136
1137
1138
1139
1140
1141
1142
1143
1144
1145
1146
1147
1148
1149
1150
1151
1152
1153
1154
1155
1156
1157
1158
1159
1160
1161
1162
1163
1164
1165
1166
1167
1168
1169
1170
1171
1172
1173
1174
1175
1176
1177
1178
1179
1180
1181
1182
1183
1184
Disc 01
->
Exact Audio Copy V1.1 from 23. June 2015

EAC extraction logfile from 9. November 2015, 13:20

King Crimson /  JurassiKc THRAK

Used drive  : PLEXTOR BD-R  PX-B950SA   Adapter: 1  ID: 1

Read mode               : Secure
Utilize accurate stream : Yes
Defeat audio cache      : Yes
Make use of C2 pointers : No

Read offset correction                      : 6
Overread into Lead-In and Lead-Out          : No
Fill up missing offset samples with silence : Yes
Delete leading and trailing silent blocks   : No
Null samples used in CRC calculations       : Yes
Used interface                              : Native Win32 interface for Win NT & 2000

Used output format : Internal WAV Routines
Sample format      : 44.100 Hz; 16 Bit; Stereo


TOC of the extracted CD

     Track |   Start  |  Length  | Start sector | End sector 
    ---------------------------------------------------------
        1  |  0:00.00 | 67:22.00 |         0    |   303149   


Range status and errors

Selected range

     Filename C:\King Crimson\1995 THRAK (12CD + DVD-A + DVD + 2 Blu-ray Box Set DMG Records)\CD01\King Crimson -  JurassiKc THRAK.wav

     Peak level 93.7 %
     Extraction speed 5.4 X
     Range quality 99.8 %
     Test CRC B49D62FD
     Copy CRC B49D62FD
     Copy OK

No errors occurred

 
AccurateRip summary
 
Track  1  not present in database
 
None of the tracks are present in the AccurateRip database

End of status report

---- CUETools DB Plugin V2.1.6

[CTDB TOCID: aztAvs0VGzDKvhT01XlPZCWoy0g-] found
Submit result: aztAvs0VGzDKvhT01XlPZCWoy0g- has been confirmed
Track | CTDB Status
  1   | (12/12) Accurately ripped


==== Log checksum 4C8D30855818F02C56A669E3CE4B54E550AE24A489C5F0F84B61D900D1F5BAA8 ====
->
=========================================================================================================================================================
->
Disc 02
->
Exact Audio Copy V1.1 from 23. June 2015

EAC extraction logfile from 9. November 2015, 12:43

King Crimson /  Maximum VROOOM

Used drive  : PLEXTOR BD-R  PX-B950SA   Adapter: 1  ID: 1

Read mode               : Secure
Utilize accurate stream : Yes
Defeat audio cache      : Yes
Make use of C2 pointers : No

Read offset correction                      : 6
Overread into Lead-In and Lead-Out          : No
Fill up missing offset samples with silence : Yes
Delete leading and trailing silent blocks   : No
Null samples used in CRC calculations       : Yes
Used interface                              : Native Win32 interface for Win NT & 2000

Used output format : Internal WAV Routines
Sample format      : 44.100 Hz; 16 Bit; Stereo


TOC of the extracted CD

     Track |   Start  |  Length  | Start sector | End sector 
    ---------------------------------------------------------
        1  |  0:00.00 |  7:34.07 |         0    |    34056   
        2  |  7:34.07 |  4:42.30 |     34057    |    55236   
        3  | 12:16.37 |  1:35.26 |     55237    |    62387   
        4  | 13:51.63 |  7:19.06 |     62388    |    95318   
        5  | 21:10.69 |  5:20.14 |     95319    |   119332   
        6  | 26:31.08 |  4:28.47 |    119333    |   139479   
        7  | 30:59.55 |  4:30.30 |    139480    |   159759   
        8  | 35:30.10 |  4:22.10 |    159760    |   179419   
        9  | 39:52.20 |  3:16.10 |    179420    |   194129   
       10  | 43:08.30 |  4:13.23 |    194130    |   213127   
       11  | 47:21.53 |  4:03.09 |    213128    |   231361   
       12  | 51:24.62 |  3:21.00 |    231362    |   246436   
       13  | 54:45.62 |  8:16.01 |    246437    |   283637   


Range status and errors

Selected range

     Filename C:\King Crimson\1995 THRAK (12CD + DVD-A + DVD + 2 Blu-ray Box Set DMG Records)\CD02\King Crimson -  Maximum VROOOM.wav

     Peak level 100.0 %
     Extraction speed 7.3 X
     Range quality 99.9 %
     Test CRC 492A6790
     Copy CRC 492A6790
     Copy OK

No errors occurred

 
AccurateRip summary
 
Track  1  not present in database
Track  2  not present in database
Track  3  not present in database
Track  4  not present in database
Track  5  not present in database
Track  6  not present in database
Track  7  not present in database
Track  8  not present in database
Track  9  not present in database
Track 10  not present in database
Track 11  not present in database
Track 12  not present in database
Track 13  not present in database
 
None of the tracks are present in the AccurateRip database

End of status report

---- CUETools DB Plugin V2.1.6

[CTDB TOCID: qEEKXH3R9UO0o.LEHDv1Qgtfiso-] found
Submit result: qEEKXH3R9UO0o.LEHDv1Qgtfiso- has been confirmed
Track | CTDB Status
  1   | (13/13) Accurately ripped
  2   | (13/13) Accurately ripped
  3   | (13/13) Accurately ripped
  4   | (13/13) Accurately ripped
  5   | (13/13) Accurately ripped
  6   | (13/13) Accurately ripped
  7   | (13/13) Accurately ripped
  8   | (13/13) Accurately ripped
  9   | (13/13) Accurately ripped
 10   | (13/13) Accurately ripped
 11   | (13/13) Accurately ripped
 12   | (13/13) Accurately ripped
 13   | (13/13) Accurately ripped


==== Log checksum 341E8895B03D8C7BE927EA78D8020B06EA48C933E6EF249FE8BFC6B1E0549C2E ====
->
=========================================================================================================================================================
->
Disc 03
->
Exact Audio Copy V1.1 from 23. June 2015

EAC extraction logfile from 9. November 2015, 12:08

King Crimson / THRAK Original Mix 2002

Used drive  : PLEXTOR BD-R  PX-B950SA   Adapter: 1  ID: 1

Read mode               : Secure
Utilize accurate stream : Yes
Defeat audio cache      : Yes
Make use of C2 pointers : No

Read offset correction                      : 6
Overread into Lead-In and Lead-Out          : No
Fill up missing offset samples with silence : Yes
Delete leading and trailing silent blocks   : No
Null samples used in CRC calculations       : Yes
Used interface                              : Native Win32 interface for Win NT & 2000

Used output format : Internal WAV Routines
Sample format      : 44.100 Hz; 16 Bit; Stereo


TOC of the extracted CD

     Track |   Start  |  Length  | Start sector | End sector 
    ---------------------------------------------------------
        1  |  0:00.00 |  4:38.40 |         0    |    20889   
        2  |  4:38.40 |  2:42.04 |     20890    |    33043   
        3  |  7:20.44 |  6:37.32 |     33044    |    62850   
        4  | 13:58.01 |  4:38.07 |     62851    |    83707   
        5  | 18:36.08 |  4:11.45 |     83708    |   102577   
        6  | 22:47.53 |  3:59.29 |    102578    |   120531   
        7  | 26:47.07 |  1:47.11 |    120532    |   128567   
        8  | 28:34.18 |  5:53.45 |    128568    |   155087   
        9  | 34:27.63 |  0:44.07 |    155088    |   158394   
       10  | 35:11.70 |  5:21.67 |    158395    |   182536   
       11  | 40:33.62 |  1:03.12 |    182537    |   187273   
       12  | 41:36.74 |  1:16.10 |    187274    |   192983   
       13  | 42:53.09 |  4:50.41 |    192984    |   214774   
       14  | 47:43.50 |  5:50.29 |    214775    |   241053   
       15  | 53:34.04 |  3:01.39 |    241054    |   254667   


Range status and errors

Selected range

     Filename C:\King Crimson\1995 THRAK (12CD + DVD-A + DVD + 2 Blu-ray Box Set DMG Records)\CD03\King Crimson - THRAK Original Mix 2002.wav

     Peak level 98.8 %
     Extraction speed 3.3 X
     Range quality 100.0 %
     Test CRC 1A35AECD
     Copy CRC 1A35AECD
     Copy OK

No errors occurred

 
AccurateRip summary
 
Track  1  not present in database
Track  2  not present in database
Track  3  not present in database
Track  4  not present in database
Track  5  not present in database
Track  6  not present in database
Track  7  not present in database
Track  8  not present in database
Track  9  not present in database
Track 10  not present in database
Track 11  not present in database
Track 12  not present in database
Track 13  not present in database
Track 14  not present in database
Track 15  not present in database
 
None of the tracks are present in the AccurateRip database

End of status report

---- CUETools DB Plugin V2.1.6

[CTDB TOCID: .MyggzR7THWq80SHZRf4Gv6pmmE-] found
Submit result: .MyggzR7THWq80SHZRf4Gv6pmmE- has been confirmed
Track | CTDB Status
  1   | (10/10) Accurately ripped
  2   | (10/10) Accurately ripped
  3   | (10/10) Accurately ripped
  4   | (10/10) Accurately ripped
  5   | (10/10) Accurately ripped
  6   | (10/10) Accurately ripped
  7   | (10/10) Accurately ripped
  8   | (10/10) Accurately ripped
  9   | (10/10) Accurately ripped
 10   | (10/10) Accurately ripped
 11   | (10/10) Accurately ripped
 12   | (10/10) Accurately ripped
 13   | (10/10) Accurately ripped
 14   | ( 9/10) Accurately ripped
 15   | ( 9/10) Accurately ripped


==== Log checksum 0945AFF4E97E9FE212C86E41AE1D063E449FD1A02E4C04F946C41982764AFBF9 ====
->
=========================================================================================================================================================
->
Disc 04
->
Exact Audio Copy V1.1 from 23. June 2015

EAC extraction logfile from 9. November 2015, 11:10

King Crimson /  ATTAKcATHRAK

Used drive  : PLEXTOR BD-R  PX-B950SA   Adapter: 1  ID: 1

Read mode               : Secure
Utilize accurate stream : Yes
Defeat audio cache      : Yes
Make use of C2 pointers : No

Read offset correction                      : 6
Overread into Lead-In and Lead-Out          : No
Fill up missing offset samples with silence : Yes
Delete leading and trailing silent blocks   : No
Null samples used in CRC calculations       : Yes
Used interface                              : Native Win32 interface for Win NT & 2000

Used output format : Internal WAV Routines
Sample format      : 44.100 Hz; 16 Bit; Stereo


TOC of the extracted CD

     Track |   Start  |  Length  | Start sector | End sector 
    ---------------------------------------------------------
        1  |  0:00.00 | 10:41.25 |         0    |    48099   
        2  | 10:41.25 |  9:31.37 |     48100    |    90961   
        3  | 20:12.62 |  7:59.61 |     90962    |   126947   
        4  | 28:12.48 | 10:23.04 |    126948    |   173676   
        5  | 38:35.52 | 10:46.25 |    173677    |   222151   


Range status and errors

Selected range

     Filename C:\King Crimson\1995 THRAK (12CD + DVD-A + DVD + 2 Blu-ray Box Set DMG Records)\CD04\King Crimson -  ATTAKcATHRAK.wav

     Peak level 92.9 %
     Extraction speed 7.0 X
     Range quality 100.0 %
     Test CRC 0A2D6CD8
     Copy CRC 0A2D6CD8
     Copy OK

No errors occurred

 
AccurateRip summary
 
Track  1  not present in database
Track  2  not present in database
Track  3  not present in database
Track  4  not present in database
Track  5  not present in database
 
None of the tracks are present in the AccurateRip database

End of status report

---- CUETools DB Plugin V2.1.6

[CTDB TOCID: g_1dgziOUE07yS3rvEhN_a9c4r0-] found
Submit result: g_1dgziOUE07yS3rvEhN_a9c4r0- has been confirmed
Track | CTDB Status
  1   | (11/11) Accurately ripped
  2   | (11/11) Accurately ripped
  3   | (11/11) Accurately ripped
  4   | (11/11) Accurately ripped
  5   | (11/11) Accurately ripped


==== Log checksum 793B10A70F9A675CF6F180E496E070B9AE1CCD358DBAA3548C7A6FD6E4444420 ====
->
=========================================================================================================================================================
->
Disc 05
->
Exact Audio Copy V1.1 from 23. June 2015

EAC extraction logfile from 8. November 2015, 19:34

King Crimson / THRAK 2015 Mix

Used drive  : PLEXTOR BD-R  PX-B950SA   Adapter: 1  ID: 1

Read mode               : Secure
Utilize accurate stream : Yes
Defeat audio cache      : Yes
Make use of C2 pointers : No

Read offset correction                      : 6
Overread into Lead-In and Lead-Out          : No
Fill up missing offset samples with silence : Yes
Delete leading and trailing silent blocks   : No
Null samples used in CRC calculations       : Yes
Used interface                              : Native Win32 interface for Win NT & 2000

Used output format : Internal WAV Routines
Sample format      : 44.100 Hz; 16 Bit; Stereo


TOC of the extracted CD

     Track |   Start  |  Length  | Start sector | End sector 
    ---------------------------------------------------------
        1  |  0:00.00 |  4:34.62 |         0    |    20611   
        2  |  4:34.62 |  2:36.19 |     20612    |    32330   
        3  |  7:11.06 |  6:38.40 |     32331    |    62220   
        4  | 13:49.46 |  4:43.41 |     62221    |    83486   
        5  | 18:33.12 |  4:10.47 |     83487    |   102283   
        6  | 22:43.59 |  3:59.22 |    102284    |   120230   
        7  | 26:43.06 |  1:47.12 |    120231    |   128267   
        8  | 28:30.18 |  5:51.52 |    128268    |   154644   
        9  | 34:21.70 |  0:42.24 |    154645    |   157818   
       10  | 35:04.19 |  5:22.02 |    157819    |   181970   
       11  | 40:26.21 |  0:57.70 |    181971    |   186315   
       12  | 41:24.16 |  1:16.24 |    186316    |   192039   
       13  | 42:40.40 |  4:49.72 |    192040    |   213786   
       14  | 47:30.37 |  5:49.63 |    213787    |   240024   
       15  | 53:20.25 |  2:57.08 |    240025    |   253307   


Range status and errors

Selected range

     Filename C:\King Crimson\1995 THRAK (12CD + DVD-A + DVD + 2 Blu-ray Box Set DMG Records)\CD05\King Crimson - THRAK 2015 Mix.wav

     Peak level 98.8 %
     Extraction speed 7.2 X
     Range quality 99.9 %
     Test CRC F7B6E6C0
     Copy CRC F7B6E6C0
     Copy OK

No errors occurred

 
AccurateRip summary
 
Track  1  not present in database
Track  2  not present in database
Track  3  not present in database
Track  4  not present in database
Track  5  not present in database
Track  6  not present in database
Track  7  not present in database
Track  8  not present in database
Track  9  not present in database
Track 10  not present in database
Track 11  not present in database
Track 12  not present in database
Track 13  not present in database
Track 14  not present in database
Track 15  not present in database
 
None of the tracks are present in the AccurateRip database

End of status report

---- CUETools DB Plugin V2.1.6

[CTDB TOCID: Fjykn1wG6ZBTp.H_VNG48V8ktes-] found
Submit result: Fjykn1wG6ZBTp.H_VNG48V8ktes- has been confirmed
Track | CTDB Status
  1   | (18/19) Accurately ripped
  2   | (19/19) Accurately ripped
  3   | (18/19) Accurately ripped
  4   | (18/19) Accurately ripped
  5   | (19/19) Accurately ripped
  6   | (17/19) Accurately ripped
  7   | (19/19) Accurately ripped
  8   | (19/19) Accurately ripped
  9   | (19/19) Accurately ripped
 10   | (19/19) Accurately ripped
 11   | (19/19) Accurately ripped
 12   | (19/19) Accurately ripped
 13   | (18/19) Accurately ripped
 14   | (19/19) Accurately ripped
 15   | (19/19) Accurately ripped


==== Log checksum 18C7751D7DA66A5827925AE8FEC740DB05D534CD790B2ECAC036BF0A0533A0EE ====
->
=========================================================================================================================================================
->
Disc 06
->
Exact Audio Copy V1.1 from 23. June 2015

EAC extraction logfile from 8. November 2015, 19:01

King Crimson / Byte-Size THRAK

Used drive  : PLEXTOR BD-R  PX-B950SA   Adapter: 1  ID: 1

Read mode               : Secure
Utilize accurate stream : Yes
Defeat audio cache      : Yes
Make use of C2 pointers : No

Read offset correction                      : 6
Overread into Lead-In and Lead-Out          : No
Fill up missing offset samples with silence : Yes
Delete leading and trailing silent blocks   : No
Null samples used in CRC calculations       : Yes
Used interface                              : Native Win32 interface for Win NT & 2000

Used output format : Internal WAV Routines
Sample format      : 44.100 Hz; 16 Bit; Stereo


TOC of the extracted CD

     Track |   Start  |  Length  | Start sector | End sector 
    ---------------------------------------------------------
        1  |  0:00.00 |  1:17.71 |         0    |     5845   
        2  |  1:17.71 |  4:19.18 |      5846    |    25288   
        3  |  5:37.14 |  6:08.35 |     25289    |    52923   
        4  | 11:45.49 |  5:25.69 |     52924    |    77367   
        5  | 17:11.43 |  3:52.57 |     77368    |    94824   
        6  | 21:04.25 |  3:43.25 |     94825    |   111574   
        7  | 24:47.50 |  4:00.70 |    111575    |   129644   
        8  | 28:48.45 |  3:43.39 |    129645    |   146408   
        9  | 32:32.09 |  3:49.55 |    146409    |   163638   
       10  | 36:21.64 |  3:16.47 |    163639    |   178385   
       11  | 39:38.36 |  4:41.52 |    178386    |   199512   
       12  | 44:20.13 |  5:43.35 |    199513    |   225272   
       13  | 50:03.48 |  7:06.61 |    225273    |   257283   
       14  | 57:10.34 |  2:36.46 |    257284    |   269029   
       15  | 59:47.05 | 12:29.09 |    269030    |   325213   
       16  | 72:16.14 |  2:55.61 |    325214    |   338399   


Range status and errors

Selected range

     Filename C:\King Crimson\1995 THRAK (12CD + DVD-A + DVD + 2 Blu-ray Box Set DMG Records)\CD06\King Crimson - Byte-Size THRAK.wav

     Peak level 99.6 %
     Extraction speed 8.1 X
     Range quality 100.0 %
     Test CRC 0D96FABD
     Copy CRC 0D96FABD
     Copy OK

No errors occurred

 
AccurateRip summary
 
Track  1  not present in database
Track  2  not present in database
Track  3  not present in database
Track  4  not present in database
Track  5  not present in database
Track  6  not present in database
Track  7  not present in database
Track  8  not present in database
Track  9  not present in database
Track 10  not present in database
Track 11  not present in database
Track 12  not present in database
Track 13  not present in database
Track 14  not present in database
Track 15  not present in database
Track 16  not present in database
 
None of the tracks are present in the AccurateRip database

End of status report

---- CUETools DB Plugin V2.1.6

[CTDB TOCID: UWQJh_HNl7JKH95rGY8Y2_CujiA-] found
Submit result: UWQJh_HNl7JKH95rGY8Y2_CujiA- has been confirmed
Track | CTDB Status
  1   | (12/12) Accurately ripped
  2   | (12/12) Accurately ripped
  3   | (12/12) Accurately ripped
  4   | (12/12) Accurately ripped
  5   | (12/12) Accurately ripped
  6   | (12/12) Accurately ripped
  7   | (12/12) Accurately ripped
  8   | (12/12) Accurately ripped
  9   | (12/12) Accurately ripped
 10   | (12/12) Accurately ripped
 11   | (12/12) Accurately ripped
 12   | (12/12) Accurately ripped
 13   | (12/12) Accurately ripped
 14   | (12/12) Accurately ripped
 15   | (12/12) Accurately ripped
 16   | (12/12) Accurately ripped


==== Log checksum 6A6AD242BC2BF04676DA10E7F770087373A0A638D52F17D546CA27A8C11347DE ====
->
=========================================================================================================================================================
->
Disc 07 & 08
->
Exact Audio Copy V1.1 from 23. June 2015

EAC extraction logfile from 8. November 2015, 18:07

King Crimson / Kcensington THRAK 1

Used drive  : PLEXTOR BD-R  PX-B950SA   Adapter: 1  ID: 1

Read mode               : Secure
Utilize accurate stream : Yes
Defeat audio cache      : Yes
Make use of C2 pointers : No

Read offset correction                      : 6
Overread into Lead-In and Lead-Out          : No
Fill up missing offset samples with silence : Yes
Delete leading and trailing silent blocks   : No
Null samples used in CRC calculations       : Yes
Used interface                              : Native Win32 interface for Win NT & 2000

Used output format : Internal WAV Routines
Sample format      : 44.100 Hz; 16 Bit; Stereo


TOC of the extracted CD

     Track |   Start  |  Length  | Start sector | End sector 
    ---------------------------------------------------------
        1  |  0:00.00 |  0:36.38 |         0    |     2737   
        2  |  0:36.38 |  4:03.63 |      2738    |    21025   
        3  |  4:40.26 |  2:52.43 |     21026    |    33968   
        4  |  7:32.69 |  5:21.56 |     33969    |    58099   
        5  | 12:54.50 |  7:02.58 |     58100    |    89807   
        6  | 19:57.33 |  5:45.01 |     89808    |   115683   
        7  | 25:42.34 |  6:06.55 |    115684    |   143188   
        8  | 31:49.14 |  6:02.47 |    143189    |   170385   
        9  | 37:51.61 |  5:31.73 |    170386    |   195283   


Range status and errors

Selected range

     Filename C:\King Crimson\1995 THRAK (12CD + DVD-A + DVD + 2 Blu-ray Box Set DMG Records)\CD07\King Crimson - Kcensington THRAK 1.wav

     Peak level 100.0 %
     Extraction speed 6.8 X
     Range quality 100.0 %
     Test CRC 3203DA17
     Copy CRC 3203DA17
     Copy OK

No errors occurred

 
AccurateRip summary
 
Track  1  not present in database
Track  2  not present in database
Track  3  not present in database
Track  4  not present in database
Track  5  not present in database
Track  6  not present in database
Track  7  not present in database
Track  8  not present in database
Track  9  not present in database
 
None of the tracks are present in the AccurateRip database

End of status report

---- CUETools DB Plugin V2.1.6

[CTDB TOCID: kmoWO0BdiX2Y98OdtCeJVz7gr9Q-] found
Submit result: kmoWO0BdiX2Y98OdtCeJVz7gr9Q- has been confirmed
Track | CTDB Status
  1   | (11/11) Accurately ripped
  2   | (11/11) Accurately ripped
  3   | (11/11) Accurately ripped
  4   | (11/11) Accurately ripped
  5   | (11/11) Accurately ripped
  6   | (11/11) Accurately ripped
  7   | (11/11) Accurately ripped
  8   | (11/11) Accurately ripped
  9   | (11/11) Accurately ripped


==== Log checksum 4940093548BB1E4C06DC036B44C25565CAF10AD92B0896FED5FF6B6BF04F2BC5 ====

Exact Audio Copy V1.1 from 23. June 2015

EAC extraction logfile from 8. November 2015, 17:33

King Crimson /  Kcensington THRAK 2

Used drive  : PLEXTOR BD-R  PX-B950SA   Adapter: 1  ID: 1

Read mode               : Secure
Utilize accurate stream : Yes
Defeat audio cache      : Yes
Make use of C2 pointers : No

Read offset correction                      : 6
Overread into Lead-In and Lead-Out          : No
Fill up missing offset samples with silence : Yes
Delete leading and trailing silent blocks   : No
Null samples used in CRC calculations       : Yes
Used interface                              : Native Win32 interface for Win NT & 2000

Used output format : Internal WAV Routines
Sample format      : 44.100 Hz; 16 Bit; Stereo


TOC of the extracted CD

     Track |   Start  |  Length  | Start sector | End sector 
    ---------------------------------------------------------
        1  |  0:00.00 |  3:52.11 |         0    |    17410   
        2  |  3:52.11 |  3:40.07 |     17411    |    33917   
        3  |  7:32.18 |  4:48.63 |     33918    |    55580   
        4  | 12:21.06 |  6:20.16 |     55581    |    84096   
        5  | 18:41.22 |  4:58.65 |     84097    |   106511   
        6  | 23:40.12 |  1:19.00 |    106512    |   112436   
        7  | 24:59.12 |  4:06.08 |    112437    |   130894   
        8  | 29:05.20 | 10:08.53 |    130895    |   176547   
        9  | 39:13.73 |  2:17.41 |    176548    |   186863   
       10  | 41:31.39 |  2:44.61 |    186864    |   199224   
       11  | 44:16.25 |  9:20.36 |    199225    |   241260   
       12  | 53:36.61 |  5:24.31 |    241261    |   265591   


Range status and errors

Selected range

     Filename C:\King Crimson\1995 THRAK (12CD + DVD-A + DVD + 2 Blu-ray Box Set DMG Records)\CD08\King Crimson -  Kcensington THRAK 2.wav

     Peak level 100.0 %
     Extraction speed 7.4 X
     Range quality 100.0 %
     Test CRC 80F1884B
     Copy CRC 80F1884B
     Copy OK

No errors occurred

 
AccurateRip summary
 
Track  1  not present in database
Track  2  not present in database
Track  3  not present in database
Track  4  not present in database
Track  5  not present in database
Track  6  not present in database
Track  7  not present in database
Track  8  not present in database
Track  9  not present in database
Track 10  not present in database
Track 11  not present in database
Track 12  not present in database
 
None of the tracks are present in the AccurateRip database

End of status report

---- CUETools DB Plugin V2.1.6

[CTDB TOCID: EM2CRbOkazns_5ek8STtFOG1pBc-] found
Submit result: EM2CRbOkazns_5ek8STtFOG1pBc- has been confirmed
Track | CTDB Status
  1   | (10/10) Accurately ripped
  2   | (10/10) Accurately ripped
  3   | (10/10) Accurately ripped
  4   | (10/10) Accurately ripped
  5   | (10/10) Accurately ripped
  6   | (10/10) Accurately ripped
  7   | (10/10) Accurately ripped
  8   | (10/10) Accurately ripped
  9   | (10/10) Accurately ripped
 10   | (10/10) Accurately ripped
 11   | (10/10) Accurately ripped
 12   | (10/10) Accurately ripped


==== Log checksum F133720F9A10AF6B629EA48E718ABC63E0683DF972FD745B924EBEED52E60444 ====
->
=========================================================================================================================================================
->
Disc 09 & 10
->
Exact Audio Copy V1.1 from 23. June 2015

EAC extraction logfile from 8. November 2015, 12:22

King Crimson / New YorKc THRAK 1

Used drive  : PLEXTOR BD-R  PX-B950SA   Adapter: 1  ID: 1

Read mode               : Secure
Utilize accurate stream : Yes
Defeat audio cache      : Yes
Make use of C2 pointers : No

Read offset correction                      : 6
Overread into Lead-In and Lead-Out          : No
Fill up missing offset samples with silence : Yes
Delete leading and trailing silent blocks   : No
Null samples used in CRC calculations       : Yes
Used interface                              : Native Win32 interface for Win NT & 2000

Used output format : Internal WAV Routines
Sample format      : 44.100 Hz; 16 Bit; Stereo


TOC of the extracted CD

     Track |   Start  |  Length  | Start sector | End sector 
    ---------------------------------------------------------
        1  |  0:00.00 |  1:56.38 |         0    |     8737   
        2  |  1:56.38 |  6:43.53 |      8738    |    39015   
        3  |  8:40.16 |  6:27.30 |     39016    |    68070   
        4  | 15:07.46 |  7:17.60 |     68071    |   100905   
        5  | 22:25.31 |  4:47.15 |    100906    |   122445   
        6  | 27:12.46 |  5:11.14 |    122446    |   145784   
        7  | 32:23.60 |  5:27.71 |    145785    |   170380   
        8  | 37:51.56 |  5:37.02 |    170381    |   195657   
        9  | 43:28.58 |  6:31.60 |    195658    |   225042   
       10  | 50:00.43 |  4:33.40 |    225043    |   245557   
       11  | 54:34.08 |  4:57.63 |    245558    |   267895   


Range status and errors

Selected range

     Filename C:\King Crimson\1995 THRAK (12CD + DVD-A + DVD + 2 Blu-ray Box Set DMG Records)\CD09\King Crimson - New YorKc THRAK 1.wav

     Peak level 95.4 %
     Extraction speed 7.4 X
     Range quality 100.0 %
     Test CRC EA15066D
     Copy CRC EA15066D
     Copy OK

No errors occurred

 
AccurateRip summary
 
Track  1  not present in database
Track  2  not present in database
Track  3  not present in database
Track  4  not present in database
Track  5  not present in database
Track  6  not present in database
Track  7  not present in database
Track  8  not present in database
Track  9  not present in database
Track 10  not present in database
Track 11  not present in database
 
None of the tracks are present in the AccurateRip database

End of status report

---- CUETools DB Plugin V2.1.6

[CTDB TOCID: qdY04hP.tf.68bp6KlOJ2dKWmag-] found
Submit result: qdY04hP.tf.68bp6KlOJ2dKWmag- has been confirmed
Track | CTDB Status
  1   | (10/10) Accurately ripped
  2   | (10/10) Accurately ripped
  3   | (10/10) Accurately ripped
  4   | (10/10) Accurately ripped
  5   | (10/10) Accurately ripped
  6   | (10/10) Accurately ripped
  7   | (10/10) Accurately ripped
  8   | (10/10) Accurately ripped
  9   | (10/10) Accurately ripped
 10   | (10/10) Accurately ripped
 11   | (10/10) Accurately ripped


==== Log checksum DCB94E76B30D4754B00D1E94A1AEC9CD8DA3C2837B7CA195AA4943233321B885 ====

Exact Audio Copy V1.1 from 23. June 2015

EAC extraction logfile from 8. November 2015, 11:18

King Crimson / New YorKc THRAK 2

Used drive  : PLEXTOR BD-R  PX-B950SA   Adapter: 1  ID: 1

Read mode               : Secure
Utilize accurate stream : Yes
Defeat audio cache      : Yes
Make use of C2 pointers : No

Read offset correction                      : 6
Overread into Lead-In and Lead-Out          : No
Fill up missing offset samples with silence : Yes
Delete leading and trailing silent blocks   : No
Null samples used in CRC calculations       : Yes
Used interface                              : Native Win32 interface for Win NT & 2000

Used output format : Internal WAV Routines
Sample format      : 44.100 Hz; 16 Bit; Stereo


TOC of the extracted CD

     Track |   Start  |  Length  | Start sector | End sector 
    ---------------------------------------------------------
        1  |  0:00.00 |  6:12.65 |         0    |    27964   
        2  |  6:12.65 |  5:55.09 |     27965    |    54598   
        3  | 12:07.74 |  7:15.67 |     54599    |    87290   
        4  | 19:23.66 |  1:51.28 |     87291    |    95643   
        5  | 21:15.19 |  4:28.09 |     95644    |   115752   
        6  | 25:43.28 |  3:56.15 |    115753    |   133467   
        7  | 29:39.43 |  2:58.22 |    133468    |   146839   
        8  | 32:37.65 |  7:28.44 |    146840    |   180483   
        9  | 40:06.34 |  4:22.56 |    180484    |   200189   
       10  | 44:29.15 |  3:56.58 |    200190    |   217947   
       11  | 48:25.73 |  2:39.55 |    217948    |   229927   
       12  | 51:05.53 |  1:53.19 |    229928    |   238421   
       13  | 52:58.72 |  3:13.74 |    238422    |   252970   


Range status and errors

Selected range

     Filename C:\King Crimson\1995 THRAK (12CD + DVD-A + DVD + 2 Blu-ray Box Set DMG Records)\CD10\King Crimson - New YorKc THRAK 2.wav

     Peak level 100.0 %
     Extraction speed 7.2 X
     Range quality 100.0 %
     Test CRC A71F1DE2
     Copy CRC A71F1DE2
     Copy OK

No errors occurred

 
AccurateRip summary
 
Track  1  not present in database
Track  2  not present in database
Track  3  not present in database
Track  4  not present in database
Track  5  not present in database
Track  6  not present in database
Track  7  not present in database
Track  8  not present in database
Track  9  not present in database
Track 10  not present in database
Track 11  not present in database
Track 12  not present in database
Track 13  not present in database
 
None of the tracks are present in the AccurateRip database

End of status report

---- CUETools DB Plugin V2.1.6

[CTDB TOCID: GAT9FQ4pUYnIA5RPWieFbxNcY_4-] found
Submit result: GAT9FQ4pUYnIA5RPWieFbxNcY_4- has been confirmed
Track | CTDB Status
  1   | (10/10) Accurately ripped
  2   | (10/10) Accurately ripped
  3   | (10/10) Accurately ripped
  4   | (10/10) Accurately ripped
  5   | (10/10) Accurately ripped
  6   | (10/10) Accurately ripped
  7   | (10/10) Accurately ripped
  8   | (10/10) Accurately ripped
  9   | (10/10) Accurately ripped
 10   | (10/10) Accurately ripped
 11   | (10/10) Accurately ripped
 12   | (10/10) Accurately ripped
 13   | (10/10) Accurately ripped


==== Log checksum C434E76A1220E0DEAD462A3DAFAA978E6B3A2450F09D943DC4B85811A610039B ====
->
=========================================================================================================================================================
->
Disc 11 & 12
->
Exact Audio Copy V1.1 from 23. June 2015

EAC extraction logfile from 8. November 2015, 10:37

King Crimson / AzteKc THRAK 1

Used drive  : PLEXTOR BD-R  PX-B950SA   Adapter: 1  ID: 1

Read mode               : Secure
Utilize accurate stream : Yes
Defeat audio cache      : Yes
Make use of C2 pointers : No

Read offset correction                      : 6
Overread into Lead-In and Lead-Out          : No
Fill up missing offset samples with silence : Yes
Delete leading and trailing silent blocks   : No
Null samples used in CRC calculations       : Yes
Used interface                              : Native Win32 interface for Win NT & 2000

Used output format : Internal WAV Routines
Sample format      : 44.100 Hz; 16 Bit; Stereo


TOC of the extracted CD

     Track |   Start  |  Length  | Start sector | End sector 
    ---------------------------------------------------------
        1  |  0:00.00 |  2:01.24 |         0    |     9098   
        2  |  2:01.24 |  5:53.50 |      9099    |    35623   
        3  |  7:54.74 |  6:32.74 |     35624    |    65097   
        4  | 14:27.73 |  5:17.65 |     65098    |    88937   
        5  | 19:45.63 |  6:49.50 |     88938    |   119662   
        6  | 26:35.38 |  5:53.29 |    119663    |   146166   
        7  | 32:28.67 |  5:05.72 |    146167    |   169113   
        8  | 37:34.64 |  3:23.39 |    169114    |   184377   
        9  | 40:58.28 |  4:52.15 |    184378    |   206292   
       10  | 45:50.43 |  6:31.53 |    206293    |   235670   


Range status and errors

Selected range

     Filename C:\King Crimson\1995 THRAK (12CD + DVD-A + DVD + 2 Blu-ray Box Set DMG Records)\CD11\King Crimson - AzteKc THRAK 1.wav

     Peak level 100.0 %
     Extraction speed 7.2 X
     Range quality 100.0 %
     Test CRC 30BB84A9
     Copy CRC 30BB84A9
     Copy OK

No errors occurred

 
AccurateRip summary
 
Track  1  not present in database
Track  2  not present in database
Track  3  not present in database
Track  4  not present in database
Track  5  not present in database
Track  6  not present in database
Track  7  not present in database
Track  8  not present in database
Track  9  not present in database
Track 10  not present in database
 
None of the tracks are present in the AccurateRip database

End of status report

---- CUETools DB Plugin V2.1.6

[CTDB TOCID: nGw.uqpj1jSZ0CotQd_VIpixOXs-] found
Submit result: nGw.uqpj1jSZ0CotQd_VIpixOXs- has been confirmed
Track | CTDB Status
  1   | (10/10) Accurately ripped
  2   | (10/10) Accurately ripped
  3   | (10/10) Accurately ripped
  4   | (10/10) Accurately ripped
  5   | (10/10) Accurately ripped
  6   | (10/10) Accurately ripped
  7   | (10/10) Accurately ripped
  8   | (10/10) Accurately ripped
  9   | (10/10) Accurately ripped
 10   | (10/10) Accurately ripped


==== Log checksum 10628F72498898C0C3B732558E88FFC659083E7B8B945AD528563C40D637AAEA ====

Exact Audio Copy V1.1 from 23. June 2015

EAC extraction logfile from 8. November 2015, 9:54

King Crimson / AzteKc THRAK 2

Used drive  : PLEXTOR BD-R  PX-B950SA   Adapter: 1  ID: 1

Read mode               : Secure
Utilize accurate stream : Yes
Defeat audio cache      : Yes
Make use of C2 pointers : No

Read offset correction                      : 6
Overread into Lead-In and Lead-Out          : No
Fill up missing offset samples with silence : Yes
Delete leading and trailing silent blocks   : No
Null samples used in CRC calculations       : Yes
Used interface                              : Native Win32 interface for Win NT & 2000

Used output format : Internal WAV Routines
Sample format      : 44.100 Hz; 16 Bit; Stereo


TOC of the extracted CD

     Track |   Start  |  Length  | Start sector | End sector 
    ---------------------------------------------------------
        1  |  0:00.00 |  4:35.20 |         0    |    20644   
        2  |  4:35.20 |  3:45.21 |     20645    |    37540   
        3  |  8:20.41 |  6:37.06 |     37541    |    67321   
        4  | 14:57.47 |  4:20.39 |     67322    |    86860   
        5  | 19:18.11 |  3:54.41 |     86861    |   104451   
        6  | 23:12.52 |  2:42.56 |    104452    |   116657   
        7  | 25:55.33 |  4:58.21 |    116658    |   139028   
        8  | 30:53.54 |  0:33.60 |    139029    |   141563   
        9  | 31:27.39 |  4:21.05 |    141564    |   161143   
       10  | 35:48.44 |  7:52.09 |    161144    |   196552   
       11  | 43:40.53 |  4:22.36 |    196553    |   216238   
       12  | 48:03.14 |  3:57.57 |    216239    |   234070   
       13  | 52:00.71 |  7:10.37 |    234071    |   266357   
       14  | 59:11.33 |  2:25.63 |    266358    |   277295   
       15  | 61:37.21 |  7:35.25 |    277296    |   311445   


Range status and errors

Selected range

     Filename C:\King Crimson\1995 THRAK (12CD + DVD-A + DVD + 2 Blu-ray Box Set DMG Records)\CD12\King Crimson - AzteKc THRAK 2.wav

     Peak level 100.0 %
     Extraction speed 7.5 X
     Range quality 100.0 %
     Test CRC E4484387
     Copy CRC E4484387
     Copy OK

No errors occurred

 
AccurateRip summary
 
Track  1  not present in database
Track  2  not present in database
Track  3  not present in database
Track  4  not present in database
Track  5  not present in database
Track  6  not present in database
Track  7  not present in database
Track  8  not present in database
Track  9  not present in database
Track 10  not present in database
Track 11  not present in database
Track 12  not present in database
Track 13  not present in database
Track 14  not present in database
Track 15  not present in database
 
None of the tracks are present in the AccurateRip database

End of status report

---- CUETools DB Plugin V2.1.6

[CTDB TOCID: js1WvSN8fQSjHd79m6CfQXL6WZU-] found
Submit result: js1WvSN8fQSjHd79m6CfQXL6WZU- has been confirmed
Track | CTDB Status
  1   | (10/10) Accurately ripped
  2   | (10/10) Accurately ripped
  3   | (10/10) Accurately ripped
  4   | (10/10) Accurately ripped
  5   | (10/10) Accurately ripped
  6   | (10/10) Accurately ripped
  7   | (10/10) Accurately ripped
  8   | (10/10) Accurately ripped
  9   | (10/10) Accurately ripped
 10   | (10/10) Accurately ripped
 11   | (10/10) Accurately ripped
 12   | (10/10) Accurately ripped
 13   | (10/10) Accurately ripped
 14   | (10/10) Accurately ripped
 15   | (10/10) Accurately ripped


==== Log checksum 179DA78C2CCB3A01FF9498B891FF85922740D2A2AFE0C2D971BFB9EB1CD6195B ====




Create a new paste based on this one


Comments: