[ create a new paste ] login | about

Link: http://codepad.org/79oc5UGy    [ raw code | fork ]

Plain Text, pasted on Dec 19:
Exact Audio Copy V1.3 from 2. September 2016

EAC extraction logfile from 6. December 2018, 20:29

David Bowie / Glass Spider CD2

Used drive  : PLEXTOR BD-R  PX-B950SA   Adapter: 1  ID: 1

Read mode               : Secure
Utilize accurate stream : Yes
Defeat audio cache      : Yes
Make use of C2 pointers : No

Read offset correction                      : 6
Overread into Lead-In and Lead-Out          : No
Fill up missing offset samples with silence : Yes
Delete leading and trailing silent blocks   : No
Null samples used in CRC calculations       : Yes
Used interface                              : Native Win32 interface for Win NT & 2000

Used output format : Internal WAV Routines
Sample format      : 44.100 Hz; 16 Bit; Stereo


TOC of the extracted CD

     Track |   Start  |  Length  | Start sector | End sector 
    ---------------------------------------------------------
        1  |  0:00.00 |  4:47.12 |         0    |    21536   
        2  |  4:47.12 |  4:07.50 |     21537    |    40111   
        3  |  8:54.62 |  5:10.11 |     40112    |    63372   
        4  | 14:04.73 |  3:10.02 |     63373    |    77624   
        5  | 17:15.00 |  5:23.22 |     77625    |   101871   
        6  | 22:38.22 |  5:06.51 |    101872    |   124872   
        7  | 27:44.73 |  4:37.38 |    124873    |   145685   
        8  | 32:22.36 |  5:23.30 |    145686    |   169940   
        9  | 37:45.66 |  5:01.63 |    169941    |   192578   
       10  | 42:47.54 |  7:05.14 |    192579    |   224467   
       11  | 49:52.68 |  5:11.45 |    224468    |   247837   
       12  | 55:04.38 |  3:26.59 |    247838    |   263346   
       13  | 58:31.22 |  4:53.24 |    263347    |   285345   


Range status and errors

Selected range

     Filename C:\David Bowie\2018 Loving The Alien (11CD Box Set Parlophone Records)\1987 Glass Spider 2CD\CD2\David Bowie - Glass Spider CD2.wav

     Peak level 98.0 %
     Extraction speed 7.4 X
     Range quality 100.0 %
     Test CRC 314D8985
     Copy CRC 314D8985
     Copy OK

No errors occurred

 
AccurateRip summary
 
Track  1  accurately ripped (confidence 14)  [E6AFEAA9]  (AR v2)
Track  2  accurately ripped (confidence 14)  [4074F8EF]  (AR v2)
Track  3  accurately ripped (confidence 14)  [3C7994AA]  (AR v2)
Track  4  accurately ripped (confidence 14)  [8F832D82]  (AR v2)
Track  5  accurately ripped (confidence 14)  [718D8A77]  (AR v2)
Track  6  accurately ripped (confidence 14)  [6CC94666]  (AR v2)
Track  7  accurately ripped (confidence 14)  [CA2DEBCC]  (AR v2)
Track  8  accurately ripped (confidence 14)  [79231A23]  (AR v2)
Track  9  accurately ripped (confidence 14)  [F2CE8D3D]  (AR v2)
Track 10  accurately ripped (confidence 14)  [C67E951E]  (AR v2)
Track 11  accurately ripped (confidence 14)  [90C71F6A]  (AR v2)
Track 12  accurately ripped (confidence 14)  [A25FA906]  (AR v2)
Track 13  accurately ripped (confidence 14)  [3772F47F]  (AR v2)
 
All tracks accurately ripped

End of status report

---- CUETools DB Plugin V2.1.6

[CTDB TOCID: H02TUW4o9SMOCa81B4jEfYTAmhM-] found
Submit result: H02TUW4o9SMOCa81B4jEfYTAmhM- has been confirmed
Track | CTDB Status
  1   | (66/66) Accurately ripped
  2   | (66/66) Accurately ripped
  3   | (66/66) Accurately ripped
  4   | (66/66) Accurately ripped
  5   | (66/66) Accurately ripped
  6   | (66/66) Accurately ripped
  7   | (66/66) Accurately ripped
  8   | (66/66) Accurately ripped
  9   | (66/66) Accurately ripped
 10   | (66/66) Accurately ripped
 11   | (66/66) Accurately ripped
 12   | (66/66) Accurately ripped
 13   | (66/66) Accurately ripped


==== Log checksum 01330F14D16E8E180D60C4B80434967741C642489AE25BA10DD56760228EA3FE ====



Create a new paste based on this one


Comments: