[ create a new paste ] login | about

Link: http://codepad.org/7BxhCgdP    [ raw code | fork ]

Plain Text, pasted on Jun 2:
foobar2000 1.3.14 / Dynamic Range Meter 1.1.1
log date: 2017-01-21 18:05:43

--------------------------------------------------------------------------------
Analyzed: Wishbone Ash / Argus (2016 SHM-SACD)
--------------------------------------------------------------------------------

DR         Peak         RMS     Duration Track
--------------------------------------------------------------------------------
DR13      -0.01 dB   -16.21 dB      9:45 01-Time Was
DR12      -0.86 dB   -14.56 dB      6:56 02-Sometime World
DR12      -1.41 dB   -15.88 dB      5:20 03-Blowin' Free
DR13      -0.43 dB   -16.48 dB      7:08 04-The King Will Come
DR10      -5.04 dB   -17.78 dB      3:56 05-Leaf And Stream
DR13      -0.99 dB   -16.98 dB      5:55 06-Warrior
DR13      -1.03 dB   -16.73 dB      5:57 07-Throw Down The Sword
DR11      -3.70 dB   -16.20 dB      3:37 08-No Easy Road
DR11      -4.33 dB   -16.22 dB      4:56 09-Jail Bait
DR10      -4.47 dB   -17.17 dB     10:09 10-The Pilgrim
DR10      -3.75 dB   -16.89 dB     17:06 11-Phoenix
--------------------------------------------------------------------------------

Number of tracks:  11
Official DR value: DR11

Samplerate:        88200 Hz
Channels:          2
Bits per sample:   24
Bitrate:           2700 kbps
Codec:             FLAC
================================================================================




Create a new paste based on this one


Comments: