[ create a new paste ] login | about

Link: http://codepad.org/7GQKUvho    [ raw code | fork ]

Plain Text, pasted on Jul 19:
foobar2000 1.3.9 / Dynamic Range Meter 1.1.1
log date: 2015-11-24 12:47:22

--------------------------------------------------------------------------------
Analyzed: Public Image Limited / Paris In The Spring (2015 SHM-SACD)
--------------------------------------------------------------------------------

DR         Peak         RMS     Duration Track
--------------------------------------------------------------------------------
DR13      -1.22 dB   -17.70 dB      8:39 01-Theme
DR13      -1.12 dB   -15.22 dB      4:27 02-Chant
DR12      -0.01 dB   -14.70 dB      7:13 03-Careering
DR14      -2.15 dB   -18.13 dB      6:24 04-Bad Baby
DR13      -1.42 dB   -16.47 dB      4:21 05-Low Life
DR12      -0.04 dB   -14.36 dB      3:01 06-Attack
DR12      -0.02 dB   -14.73 dB      7:05 07-Poptones
--------------------------------------------------------------------------------

Number of tracks:  7
Official DR value: DR13

Samplerate:        88200 Hz
Channels:          2
Bits per sample:   24
Bitrate:           2717 kbps
Codec:             FLAC
================================================================================




Create a new paste based on this one


Comments: