[ create a new paste ] login | about

Link: http://codepad.org/7HWgISkD    [ raw code | fork ]

Plain Text, pasted on Sep 24:
foobar2000 1.3.17 / Dynamic Range Meter 1.1.1
log date: 2018-09-23 21:57:17

--------------------------------------------------------------------------------
Analyzed: Rickie Lee Jones / Rickie Lee Jones  (MFSL LP)
--------------------------------------------------------------------------------

DR         Peak         RMS     Duration Track
--------------------------------------------------------------------------------
DR15      -1.94 dB   -19.97 dB      3:32 01-Chuck E.'s in Love
DR15      -8.30 dB   -29.45 dB      2:34 02-On Saturday Afternoons in 1963
DR13      -3.10 dB   -20.02 dB      3:19 03-Night Train
DR13      -1.12 dB   -17.03 dB      4:08 04-Young Blood
DR16      -7.17 dB   -26.17 dB      3:20 05-Easy Money
DR15      -4.43 dB   -24.52 dB      4:11 06-The Last Chance Texaco
DR16      -0.29 dB   -19.11 dB      4:06 07-Danny's All-Star Joint
DR16      -1.76 dB   -23.53 dB      3:53 08-Coolsville
DR15      -1.40 dB   -19.71 dB      6:05 09-Weasel and the White Boys Cool
DR12      -6.92 dB   -23.60 dB      4:56 10-Company
DR13      -6.78 dB   -29.17 dB      2:19 11-After Hours (Twelve Bars Past Midnight)
--------------------------------------------------------------------------------

Number of tracks:  11
Official DR value: DR15

Samplerate:        44100 Hz
Channels:          2
Bits per sample:   16
Bitrate:           456 kbps
Codec:             FLAC
================================================================================




Create a new paste based on this one


Comments: