[ create a new paste ] login | about

Link: http://codepad.org/7HjJ2xRW    [ raw code | fork ]

Plain Text, pasted on May 11:
foobar2000 1.3.17 / Dynamic Range Meter 1.1.1
log date: 2018-05-11 07:32:46

--------------------------------------------------------------------------------
Analyzed: Scorpions / Best of Scorpions
--------------------------------------------------------------------------------

DR         Peak         RMS     Duration Track
--------------------------------------------------------------------------------
DR10      -0.24 dB   -11.84 dB      3:39 01-Steamrock Fever
DR9       -0.44 dB   -11.42 dB      3:26 02-Pictured Life
DR9        0.00 dB   -11.29 dB      2:47 03-Robot Man
DR10      -0.17 dB   -11.49 dB      3:13 04-Backstage Queen
DR11      -0.46 dB   -12.84 dB      3:39 05-Speedy's Coming
DR10      -0.34 dB   -12.53 dB      3:04 06-Hell Cat
DR11      -0.06 dB   -12.88 dB      3:19 07-He's a Woman - She's a Man
DR10      -0.23 dB   -13.74 dB      4:47 08-In Trance
DR9        0.00 dB   -11.02 dB      3:31 09-Dark Lady
DR11      -0.12 dB   -13.77 dB      4:25 10-The Sails of Charon
DR10      -0.50 dB   -11.70 dB      3:47 11-Virgin Killer
--------------------------------------------------------------------------------

Number of tracks:  11
Official DR value: DR10

Samplerate:        44100 Hz
Channels:          2
Bits per sample:   16
Bitrate:           979 kbps
Codec:             FLAC
================================================================================




Create a new paste based on this one


Comments: