[ create a new paste ] login | about

Link: http://codepad.org/7KqX6RWi    [ raw code | fork ]

Plain Text, pasted on Nov 27:
foobar2000 1.3.16 / Dynamic Range Meter 1.1.1
log date: 2017-11-23 22:07:04

--------------------------------------------------------------------------------
Analyzed: Frank Sinatra / Nice 'n' Easy (MFSL)
--------------------------------------------------------------------------------

DR         Peak         RMS     Duration Track
--------------------------------------------------------------------------------
DR10      -0.06 dB   -13.06 dB      2:46 01-Nice 'n' Easy
DR10      -0.08 dB   -13.77 dB      3:35 02-That Old Feeling
DR10      -0.20 dB   -13.64 dB      3:16 03-How Deep Is The Ocean
DR11      -0.48 dB   -15.16 dB      2:17 04-I've Got A Crush On You
DR10      -0.31 dB   -13.39 dB      4:29 05-You Go To My Head
DR11      -0.21 dB   -14.39 dB      3:23 06-Fools Rush In
DR11      -0.07 dB   -14.45 dB      3:19 07-Nevertheless
DR10      -0.06 dB   -13.04 dB      3:57 08-She's Funny That Way
DR11      -0.19 dB   -14.86 dB      3:23 09-Try A Little Tenderness
DR10      -0.24 dB   -13.37 dB      3:25 10-Embraceable You
DR12      -0.05 dB   -15.62 dB      2:48 11-Mam'selle
DR10      -0.01 dB   -13.53 dB      2:58 12-Dream
--------------------------------------------------------------------------------

Number of tracks:  12
Official DR value: DR11

Samplerate:        44100 Hz
Channels:          2
Bits per sample:   16
Bitrate:           776 kbps
Codec:             FLAC
================================================================================




Create a new paste based on this one


Comments: